Призрачный рейс / 407 Dark Flight (Исара Нади / Isara Nadee) [2012, Таиланд, ужасы, триллер, HDRip] MVO

Ответить на тему
 
Автор Сообщение

user ®

Стаж: 11 лет

Сообщений: 15151

Пост Пост: #1 от 22-Июн-2014 23:10

[Цитировать]

Призрачный рейс / 407 Dark Flight
Страна: Таиланд
Студия: Five Star Production Co. Ltd.
Жанр: ужасы, триллер
Год выпуска: 2012
Продолжительность: 01:44:37
Перевод: Профессиональный (многоголосый закадровый)
Cубтитры: нет
Режиссер: Исара Нади / Isara Nadee
В ролях: Марша Ваттанапанич, Питер Найт, Парамеж Ноям, Патчари Тубтонг, Анчали Хассадевичит, Тхити Вачабул, Намо Тункомнерд, Сисангиан Сихалат, Джонатан Самсон, Кристен Эвелин Росси
Описание: Это будет самый темный полет в вашей жизни. 10 лет назад молодая стюардесса чудом выжила в авиакатастрофе. Женщина настаивала на том, что причиной катастрофы стал темный злой дух, но ей не верят и отправляют пройти курс психотерапии. Теперь она снова готова летать. Но ее первый полет порождает самые тревожные чувства. Самолет, на котором стюардессе придется снова работать оказывается тем же самым проклятым самолетом, правда отремонтированным и перекрашенным…
Релиз группы:
Сэмпл: http://multi-up.com/981917
Тип релиза: HDRip (BDRip 720p)
Контейнер: AVI
Видео: XviD, 1795 Kbps, 720 х 400 pixels, 23.976 fps
Аудио: AC3, 192 Kbps, 2 channels, Front: L R, 48.0 KHz, 16 bits - Rus

MediaInfo
General
Complete name : D:\kirovtorrent\407.Dark.Flight.2012.HDRip.1.45Gb.avi
Format : AVI
Format/Info : Audio Video Interleave
File size : 1.46 GiB
Duration : 1h 44mn
Overall bit rate : 1 996 Kbps
Writing application : VirtualDubMod 1.5.10.3 | www.virtualdub-fr.org || (build 2550/release)
Writing library : VirtualDubMod build 2550/release
Video
ID : 0
Format : MPEG-4 Visual
Format profile : Advanced Simple@L5
Format settings, BVOP : Yes
Format settings, QPel : No
Format settings, GMC : No warppoints
Format settings, Matrix : Default (MPEG)
Codec ID : XVID
Codec ID/Hint : XviD
Duration : 1h 44mn
Bit rate : 1 795 Kbps
Width : 720 pixels
Height : 400 pixels
Display aspect ratio : 16:9
Frame rate : 23.976 fps
Color space : YUV
Chroma subsampling : 4:2:0
Bit depth : 8 bits
Scan type : Progressive
Compression mode : Lossy
Bits/(Pixel*Frame) : 0.260
Stream size : 1.31 GiB (90%)
Writing library : XviD 1.2.1 (UTC 2008-12-04)
Audio
ID : 1
Format : AC-3
Format/Info : Audio Coding 3
Mode extension : CM (complete main)
Format settings, Endianness : Big
Codec ID : 2000
Duration : 1h 44mn
Bit rate mode : Constant
Bit rate : 192 Kbps
Channel(s) : 2 channels
Channel positions : Front: L R
Sampling rate : 48.0 KHz
Bit depth : 16 bits
Compression mode : Lossy
Stream size : 144 MiB (10%)
Alignment : Split accross interleaves
Interleave, duration : 42 ms (1.00 video frame)
Interleave, preload duration : 500 ms
Скриншоты
Скачать

Скачать торрент! Призрачный рейс / 407 Dark Flight (Исара Нади / Isara Nadee) [2012, Таиланд, ужасы, триллер, HDRip] MVO

Как скачивать? · Что такое торрент? · Рейтинг и ограничения

Сайт не распространяет и не хранит электронные версии произведений, а лишь предоставляет доступ к создаваемому пользователями каталогу ссылок на торрент-файлы, которые содержат только списки хеш-сумм

[Профиль] [ЛС]
Показать сообщения:    
Ответить на тему

Текущее время: Сегодня 10:34

Часовой пояс: GMT + 4



Вы не можете начинать темы
Вы не можете отвечать на сообщения
Вы не можете редактировать свои сообщения
Вы не можете удалять свои сообщения
Вы не можете голосовать в опросах
Вы не можете прикреплять файлы к сообщениям
Вы не можете скачивать файлы