Морис Ришар / Maurice Richard (Шарль Бинамэ / Charles Biname) [2005, Канада, Биография / Драма / Спорт, BDRip 720p] VO (Лыдин) + Sub Rus, Eng + Original Eng

Ответить на тему
 
Автор Сообщение

user ®

Стаж: 7 лет 7 месяцев

Сообщений: 20008

Пост Пост: #1 от 22-Июн-2014 20:00

[Цитировать]

Морис Ришар / Maurice Richard
Страна: Канада
Жанр: Биография / Драма / Спорт
Год выпуска: 2005
Продолжительность: 02:03:00
Озвучка: Одноголосая закадровая - Алексей Лыдин
Cубтитры: русские (переводчик неизвестен), английские
Оригинальная аудиодорожка: английский / французский
Режиссер: Шарль Бинамэ / Charles Biname
В ролях: Рой Дюпуи, Жюли ЛеБретон, Шон Эйвери, Венсан Лекавалье, Стефан МакХатти, Тони Калабретта, Филип Крейг, Тедд Диллон
Описание: Морис Ришар — легенда НХЛ и мирового хоккея, играл в «Монреаль Канадиенс» правым нападающим с 42-го по 1960-ый.
За его спокойной внешностью обычного человека скрывались твердость, страсть и сверхъестественный талант, которые и превратили молодого игрока в Ракету (как его называли болельщики).
Хотя его таланта и умений и было достаточно для того, чтобы попасть в Монреаль Канадиенс, частые травмы стоили ему доверия команды и болельщиков. В то время в Канаде людям разных культур (англофонным и франкофонным канадцам) отказывалось в равенстве, и он, будучи франкоговорящим хоккеистом (pea soup), высмеивался критиками за то, что «слишком слаб и хрупок для хоккея».
Морис Ришар бросил вызов социальному и хоккейному неравенству и стал первым игроком, который когда-либо забивал 50 голов в 50 играх. Он играл с изяществом, скоростью и уверенностью, которые сделали его легендой. Он играл в хоккей нового уровня, который был пока еще недоступен большинству игроков, привыкших к прямолинейным силовым способам игры.
Однако, несмотря на все успехи, Ришар и его коллеги, French Canadians, постоянно сталкивались с дискриминацией внутри лиги, где доминировали англоговорящие канадцы.
И хотя Ришар был человеком немногословным, он начал высказывать свое мнение по поводу несправедливости, царившей в лиге. Это повлекло за собой конфликт с администрацией НХЛ и как следствие, его отстранение от игр в конце сезона 55-ого года. Отстранение Ришара возбудило один из самых крупных бунтов в Монреале тех времен. Болельщики вышли на улицы и начали громить город в знак протеста против решения Президента НХЛ. Беспорядки закончились только после того, как Ришар выступил по радио и попросил людей остановиться.
Съемки фильма готовились при участии самого Мориса Ришара (он дожил до 80 лет), его жены и коллег. Сцены хоккейных баталий сделаны с документальной точностью.
Фильм на английском и французском языках, поскольку отражает реалии двуязычной Канады. Часть персонажей говорит по английски, а часть — по французски.

Сэмпл: https://yadi.sk/d/s6mQmlT3U2HoQ
Тип релиза: BDRip 720p
Контейнер: MKV
Видео: AVC, 1280x544, 5014 kbps, 23,976 fps
Аудио 1: (Русская) AC-3, 640 kbps, 48 kHz, 6 ch
Аудио 2: (Оригинал) AC-3, 640 kbps, 48 kHz, 6 ch
Формат субтитров: softsub (SRT)
MediaInfo
D:\films\Ракета\Rocket\The.Rocket.Maurice.Richard.2005.720p.BluRay_RUS.mkv
General
Unique ID : 195740660953817384369605135565775909207 (0x934247AFD1412B9BACF5F878F72B3157)
Complete name : D:\films\Ракета\Rocket\The.Rocket.Maurice.Richard.2005.720p.BluRay_RUS.mkv
Format : Matroska
Format version : Version 4 / Version 2
File size : 5.55 GiB
Duration : 2h 3mn
Overall bit rate : 6 422 Kbps
Encoded date : UTC 2014-06-17 18:31:47
Writing application : mkvmerge v6.7.0 ('Back to the Ground') 64bit built on Jan 8 2014 15:10:52
Writing library : libebml v1.3.0 + libmatroska v1.4.1
Video #2
ID : 2
Format : AVC
Format/Info : Advanced Video Codec
Format profile : High@L4.1
Format settings, CABAC : Yes
Format settings, ReFrames : 5 frames
Codec ID : V_MPEG4/ISO/AVC
Duration : 2h 3mn
Bit rate : 5 014 Kbps
Width : 1 280 pixels
Height : 544 pixels
Display aspect ratio : 2.35:1
Frame rate mode : Constant
Frame rate : 23.976 fps
Color space : YUV
Chroma subsampling : 4:2:0
Bit depth : 8 bits
Scan type : Progressive
Bits/(Pixel*Frame) : 0.300
Stream size : 4.33 GiB (78%)
Language : English
Default : Yes
Forced : No
Audio #1
ID : 1
Format : AC-3
Format/Info : Audio Coding 3
Mode extension : CM (complete main)
Format settings, Endianness : Big
Codec ID : A_AC3
Duration : 2h 3mn
Bit rate mode : Constant
Bit rate : 640 Kbps
Channel(s) : 6 channels
Channel positions : Front: L C R, Side: L R, LFE
Sampling rate : 48.0 KHz
Bit depth : 16 bits
Compression mode : Lossy
Stream size : 566 MiB (10%)
Title : Russian
Language : Russian
Default : Yes
Forced : No
Audio #3
ID : 3
Format : AC-3
Format/Info : Audio Coding 3
Mode extension : CM (complete main)
Format settings, Endianness : Big
Codec ID : A_AC3
Duration : 2h 3mn
Bit rate mode : Constant
Bit rate : 640 Kbps
Channel(s) : 6 channels
Channel positions : Front: L C R, Side: L R, LFE
Sampling rate : 48.0 KHz
Bit depth : 16 bits
Compression mode : Lossy
Stream size : 566 MiB (10%)
Language : French
Default : No
Forced : No
Text #4
ID : 4
Format : UTF-8
Codec ID : S_TEXT/UTF8
Codec ID/Info : UTF-8 Plain Text
Language : English
Default : No
Forced : No
Text #5
ID : 5
Format : UTF-8
Codec ID : S_TEXT/UTF8
Codec ID/Info : UTF-8 Plain Text
Language : Russian
Default : No
Forced : No
Скриншоты
Скачать

Скачать торрент!

Как скачивать? · Что такое торрент? · Рейтинг и ограничения

Сайт не распространяет и не хранит электронные версии произведений, а лишь предоставляет доступ к создаваемому пользователями каталогу ссылок на торрент-файлы, которые содержат только списки хеш-сумм

[Профиль] [ЛС]
Показать сообщения:    
Ответить на тему

Текущее время: Сегодня 12:08

Часовой пояс: GMT + 4



Вы не можете начинать темы
Вы не можете отвечать на сообщения
Вы не можете редактировать свои сообщения
Вы не можете удалять свои сообщения
Вы не можете голосовать в опросах
Вы не можете прикреплять файлы к сообщениям
Вы не можете скачивать файлы