Трупное окоченение / Rigor Mortis / Geung si (Джуно Мак / Juno Mak) [2013, Гонконг, Китай, триллер, ужасы, драма, HDRip] DVO [den904, DeadSno]

Ответить на тему
 
Автор Сообщение

user ®

Стаж: 11 лет

Сообщений: 15151

Пост Пост: #1 от 22-Июн-2014 04:30

[Цитировать]

Трупное окоченение / Rigor Mortis / Geung si- -Страна: Гонконг, Китай
Жанр: триллер, ужасы, драма
Год выпуска: 2013
Продолжительность: 01:40:51-Перевод: Любительский (двухголосый закадровый) [den904, DeadSno]-Cубтитры: нет
Оригинальная аудиодорожка: нет
Режиссер: Джуно Мак / Juno Mak
В ролях: Энтони Чан, Чин Сиу Хоу, Кара Хуи, Хой-Панг Ло, Ричард Н, Хи Чинг Пав...
Описание: История о бывшем актере, игравшем охотника на вампиров, который теперь переживает не лучшие времена, он расстался с женой, а его сын не испытывает к нему теплых чувств. Но вскоре его жизнь сильно изменится…
Релиз от -
Качество видео: HDRip
Формат видео: AVI
Видео: MPEG-4 Visual at 1701 Кбит/сек; 720 x 304 (2.368) at 24.000 fps
Аудио: AC-3 at 384 Кбит/сек; 6 каналов, 48,0 КГц
Автор -
MediaInfo
Общее
Полное имя : D:\Фильмы\Азиатские\Трупное окоченение\Rigor Mortis.2013.HDRip.XviD.1400MB. rip by [Assassin's Creed].avi
Формат : AVI
Формат/Информация : Audio Video Interleave
Размер файла : 1,48 Гбайт
Продолжительность : 1 ч. 40 м.
Общий поток : 2094 Кбит/сек
Программа кодирования : VirtualDubMod 1.5.10.2 (build 2540/release)
Библиотека кодирования : VirtualDubMod build 2540/release
Видео
Идентификатор : 0
Формат : MPEG-4 Visual
Профиль формата : Advanced Simple@L5
Параметр BVOP формата : 1
Параметр QPel формата : Нет
Параметр GMC формата : Без точки перехода
Параметр матрицы формата : Default (MPEG)
Идентификатор кодека : XVID
Идентификатор кодека/Подсказка : XviD
Продолжительность : 1 ч. 40 м.
Битрейт : 1701 Кбит/сек
Ширина : 720 пикселей
Высота : 304 пикселя
Соотношение сторон : 2,35:1
Частота кадров : 24,000 кадра/сек
Цветовое пространство : YUV
Субдискретизация насыщенности : 4:2:0
Битовая глубина : 8 бит
Тип развёртки : Прогрессивная
Метод сжатия : С потерями
Бит/(Пиксели*Кадры) : 0.324
Размер потока : 1,20 Гбайт (81%)
Библиотека кодирования : XviD 1.2.1 (UTC 2008-12-04)
Аудио
Идентификатор : 1
Формат : AC-3
Формат/Информация : Audio Coding 3
Расширение режима : CM (complete main)
Параметр Endianness формата : Big
Идентификатор кодека : 2000
Продолжительность : 1 ч. 40 м.
Вид битрейта : Постоянный
Битрейт : 384 Кбит/сек
Каналы : 6 каналов
Расположение каналов : Front: L C R, Side: L R, LFE
Частота : 48,0 КГц
Битовая глубина : 16 бит
Метод сжатия : С потерями
Размер потока : 277 Мбайт (18%)
Выравнивание : Разделение по промежуткам
Продолжительность промежутка : 42 мс. (1,00 видеокадр)
Время предзагрузки промежутка : 500 мс.
Скриншот c названием фильма Скриншоты
Скачать

Скачать торрент! Трупное окоченение / Rigor Mortis / Geung si (Джуно Мак / Juno Mak) [2013, Гонконг, Китай, триллер, ужасы, драма, HDRip] DVO [den904, DeadSno]

Как скачивать? · Что такое торрент? · Рейтинг и ограничения

Сайт не распространяет и не хранит электронные версии произведений, а лишь предоставляет доступ к создаваемому пользователями каталогу ссылок на торрент-файлы, которые содержат только списки хеш-сумм

[Профиль] [ЛС]
Показать сообщения:    
Ответить на тему

Текущее время: Сегодня 05:58

Часовой пояс: GMT + 4



Вы не можете начинать темы
Вы не можете отвечать на сообщения
Вы не можете редактировать свои сообщения
Вы не можете удалять свои сообщения
Вы не можете голосовать в опросах
Вы не можете прикреплять файлы к сообщениям
Вы не можете скачивать файлы