Экспедиция в Гималаи / Charas: A Joint Effort (Тигманшу Дхулиа / Tigmanshu Dhulia) [2004, Индия, Приключения, боевик, DVDRip] MVO

Ответить на тему
 
Автор Сообщение

user ®

Стаж: 12 лет

Сообщений: 15092

Пост Пост: #1 от 22-Июн-2014 04:30

[Цитировать]

Экспедиция в Гималаи / Charas: A Joint Effort
Страна: Индия
Жанр: Приключения, боевик
Год выпуска: 2004
Продолжительность: 02:19:59
Перевод: Профессиональный (многоголосый закадровый)
Cубтитры: нет
Режиссер: Тигманшу Дхулиа / Tigmanshu Dhulia
В ролях: Варун Бадола, Сэм Беди, Ришита Бхатт, Удай Чопра, Кенни Десаи, Дипак Добриял, Раджив Гупта, Ирфан Кхан, Джахангир Кхан, Хэриш Ханна
Описание: Английский студент ботаники Сэм Хидингс, отправившийся в Гималаи для изучения флоры, бесследно пропадает. Убитые горем родители нанимают для его поиска детектива Скотланд Ярда, индийца по происхождению Дев Ананда. На месте Дев выясняет, что следы Сэма ведут в горы и привлекает к поискам проводника Ашарафа. К поисковой группе присоединяется журналистка Пия и местная учительница Найна…
Доп. информация: Релиз
Сэмпл: http://multi-up.com/981571
Качество видео: DVDRip
Формат видео: AVI
Видео: XviD build 47, 720x400 (1.80:1), 29.970 fps, 1649 kbps avg
Аудио: AC3 Dolby Digital, 48 kHz, 3/2 (L,C,R,l,r) + LFE ch, 448.00 kbps avg
MediaInfo
General
Complete name : D:\Ekspidiciy.v.Qimalai.2004.XviD.DVDRip.avi
Format : AVI
Format/Info : Audio Video Interleave
Format profile : OpenDML
File size : 2.06 GiB
Duration : 2h 19mn
Overall bit rate : 2 106 Kbps
Movie name : Ekspediciya.v.Gimalai.2004. DVDRip.XviD.BwTorrents
Director : Виктория
Writing application : Lavf51.10.0
Original source form/Name : DVD_VOLUME
Video
ID : 0
Format : MPEG-4 Visual
Format profile : Simple@L3
Format settings, BVOP : No
Format settings, QPel : No
Format settings, GMC : No warppoints
Format settings, Matrix : Default (H.263)
Codec ID : XVID
Codec ID/Hint : XviD
Duration : 2h 19mn
Bit rate : 1 642 Kbps
Width : 720 pixels
Height : 400 pixels
Display aspect ratio : 16/9
Frame rate : 29.970 fps
Resolution : 24 bits
Colorimetry : 4:2:0
Scan type : Progressive
Bits/(Pixel*Frame) : 0.190
Stream size : 1.61 GiB (78%)
Writing library : XviD 1.1.2 (UTC 2006-11-01)
Audio
ID : 1
Format : AC-3
Format/Info : Audio Coding 3
Codec ID : 2000
Duration : 2h 19mn
Bit rate mode : Constant
Bit rate : 448 Kbps
Channel(s) : 6 channels
Channel positions : Front: L C R, Surround: L R, LFE
Sampling rate : 48.0 KHz
Stream size : 449 MiB (21%)
Alignment : Aligned on interleaves
Interleave, duration : 32 ms (0.96 video frame)
Скриншоты
Скачать

Скачать торрент! Экспедиция в Гималаи / Charas: A Joint Effort (Тигманшу Дхулиа / Tigmanshu Dhulia) [2004, Индия, Приключения, боевик, DVDRip] MVO

Как скачивать? · Что такое торрент? · Рейтинг и ограничения

Сайт не распространяет и не хранит электронные версии произведений, а лишь предоставляет доступ к создаваемому пользователями каталогу ссылок на торрент-файлы, которые содержат только списки хеш-сумм

[Профиль] [ЛС]
Показать сообщения:    
Ответить на тему

Текущее время: Сегодня 06:50

Часовой пояс: GMT + 4



Вы не можете начинать темы
Вы не можете отвечать на сообщения
Вы не можете редактировать свои сообщения
Вы не можете удалять свои сообщения
Вы не можете голосовать в опросах
Вы не можете прикреплять файлы к сообщениям
Вы не можете скачивать файлы