Гостеприимство / Бесчисленные неудачи Раманы / Maryada Ramanna (С.С. Раджамоули / S.S. Rajamouli) [2010, Индия, Комедия, боевик, BDRip] MVO

Ответить на тему
 
Автор Сообщение

user ®

Стаж: 12 лет

Сообщений: 15092

Пост Пост: #1 от 22-Июн-2014 04:30

[Цитировать]

Гостеприимство / Бесчисленные неудачи Раманы / Maryada Ramanna
-Страна: Индия
Жанр: Комедия, боевик
Год выпуска: 2010
Продолжительность: 02:10:50-Перевод: Профессиональный (многоголосый закадровый) - Red Media [Индия ТВ]
Субтитры: Нет--Режиссер: С.С. Раджамоули / S.S. Rajamouli-В ролях: Сунил, Салони Асвани, Анудж Гурвара, Брахмаджи, Канчи, Рао Рамеш, Нагиниду-Описание: Месть - это блюдо, которое подают холодным... Бесценные слова из "Убить Била" не были знакомы семейству Раминиду. Так он и своих сынков вырастил. И нет в Райялсиме семейки ужасней, чем их. В гости придешь: покормят, обогреют, а вот выйдешь ли оттуда с головой на плечах - большой вопрос...-- | --Качество видео: BDRip
Формат видео: AVI-Видео: XviD build 73, 720x304 (2.37:1), 24 fps, 1477 kbps
Аудио: 44.1 kHz, MPEG Layer 3, 2 ch, ~112.00 kbps-Сэмпл / Sample
-
Сведение звука: soso4eg
Доп. информация: на промежутке времени 00:40:36 - 00:40:58 и 00:44:47 - 00:45:30 вставлен двухголосый любительский перевод ICG (спасибо!)
-
- -
-
Скриншот с названием:
-
Скриншоты:
-
MI
-Общее
Полное имя : K:\[Релизы]\Gostepriimstvo.2010.BDRip.XviD-soso4eg.avi
Формат : AVI
Формат/Информация : Audio Video Interleave
Размер файла : 1,46 Гбайт
Продолжительность : 2 ч. 10 м.
Общий поток : 1598 Кбит/сек
Название фильма : Maryada.Ramanna.2010.BDRip.XviD-soso4eg
Режиссёр : soso4eg
Программа кодирования : VirtualDubMod 1.6.0.0 SURROUND (build 2560/release)
Правообладатель : специально для BitTorrent трекер
Примечание : пер. Red Mrdia
Видео
Идентификатор : 0
Формат : MPEG-4 Visual
Профиль формата : Advanced Simple@L5
Параметр BVOP формата : 1
Параметр QPel формата : Нет
Параметр GMC формата : Без точки перехода
Параметр матрицы формата : Выборочная
Идентификатор кодека : XVID
Идентификатор кодека/Подсказка : XviD
Продолжительность : 2 ч. 10 м.
Битрейт : 1477 Кбит/сек
Ширина : 720 пикселей
Высота : 304 пикселя
Соотношение сторон : 2,35:1
Частота кадров : 24,000 кадра/сек
Цветовое пространство : YUV
Субдискретизация насыщенности : 4:2:0
Битовая глубина : 8 бит
Тип развёртки : Прогрессивная
Метод сжатия : С потерями
Бит/(Пиксели*Кадры) : 0.281
Размер потока : 1,35 Гбайт (92%)
Библиотека кодирования : XviD 73
Аудио
Идентификатор : 1
Формат : MPEG Audio
Версия формата : Version 1
Профиль формата : Layer 3
Режим : Joint stereo
Идентификатор кодека : 55
Идентификатор кодека/Подсказка : MP3
Продолжительность : 2 ч. 10 м.
Вид битрейта : Постоянный
Битрейт : 112 Кбит/сек
Каналы : 2 канала
Частота : 44,1 КГц
Метод сжатия : С потерями
Размер потока : 105 Мбайт (7%)
Выравнивание : Разделение по промежуткам
Продолжительность промежутка : 42 мс. (1,00 видеокадр)
Время предзагрузки промежутка : 500 мс.
Библиотека кодирования : LAME3.90.3

-
-
Скачать

Скачать торрент! Гостеприимство / Бесчисленные неудачи Раманы / Maryada Ramanna (С.С. Раджамоули / S.S. Rajamouli) [2010, Индия, Комедия, боевик, BDRip] MVO

Как скачивать? · Что такое торрент? · Рейтинг и ограничения

Сайт не распространяет и не хранит электронные версии произведений, а лишь предоставляет доступ к создаваемому пользователями каталогу ссылок на торрент-файлы, которые содержат только списки хеш-сумм

[Профиль] [ЛС]
Показать сообщения:    
Ответить на тему

Текущее время: Сегодня 11:24

Часовой пояс: GMT + 4



Вы не можете начинать темы
Вы не можете отвечать на сообщения
Вы не можете редактировать свои сообщения
Вы не можете удалять свои сообщения
Вы не можете голосовать в опросах
Вы не можете прикреплять файлы к сообщениям
Вы не можете скачивать файлы