Говори это снова и снова / Kehtaa Hai Dil Baar Baar (Рахул Дхолакия / Rahul Dholakia) [2002, Индия, США, Мелодрама, комедия, DVDRip] MVO

Ответить на тему
 
Автор Сообщение

user ®

Стаж: 12 лет

Сообщений: 15092

Пост Пост: #1 от 22-Июн-2014 04:30

[Цитировать]

Говори это снова и снова / Kehtaa Hai Dil Baar Baar
Страна: Индия, США
Жанр: Мелодрама, комедия
Год выпуска: 2002
Продолжительность: 01:58:23
Перевод: Профессиональный (многоголосый закадровый)
Cубтитры: нет
Режиссер: Рахул Дхолакия / Rahul Dholakia
В ролях: Пареш Раваль, Джимми Шергилл, Ким Шарма, Джонни Левер, Ранджит, Нина Кулкарни, Парзаан Дастур, Динеш Хингу, Пуджа Гупта
Описание: Сундер Капур приехал в США с конкретной целью — познакомить американцев со здоровой индийской пищей. Его передвижной вагончик с пищей быстрого приготовления прочно обосновался на улицах Нью-Йорка. Однажды он встречает Риту и влюбляется в нее с первого взгляда. Но у Риты есть респектабельный отец, готовый отдать дочку замуж только за богатого и солидного жениха…
Доп. информация: Релиз
Сведение звука: василисса (Спасибо!)
Сэмпл: http://multi-up.com/981610
Качество видео: DVDRip
Формат видео: AVI
Видео: XviD build 50, 640x320 (2.00:1), 23.976 fps, 1449 kbps avg
Аудио: AC3 Dolby Digital, 48 kHz, 2/0 (L,R) ch, 192.00 kbps avg
MediaInfo
General
Complete name : D:\Govori.Eto.Snova.I.Snova.2002.DVDRip.XviD.BwTorrents.avi
Format : AVI
Format/Info : Audio Video Interleave
File size : 1.37 GiB
Duration : 1h 58mn
Overall bit rate : 1 651 Kbps
Writing application : VirtualDubMod 1.5.10.3 | www.virtualdub-fr.org || (build 2550/release)
Writing library : VirtualDubMod build 2550/release
Video
ID : 0
Format : MPEG-4 Visual
Format profile : AdvancedSimple@L5
Format settings, BVOP : Yes
Format settings, QPel : No
Format settings, GMC : No warppoints
Format settings, Matrix : Default (H.263)
Codec ID : XVID
Codec ID/Hint : XviD
Duration : 1h 58mn
Bit rate : 1 450 Kbps
Width : 640 pixels
Height : 320 pixels
Display aspect ratio : 2.000
Frame rate : 23.976 fps
Resolution : 24 bits
Colorimetry : 4:2:0
Scan type : Progressive
Bits/(Pixel*Frame) : 0.295
Stream size : 1.20 GiB (88%)
Writing library : XviD 1.2.1 (UTC 2008-12-04)
Audio
ID : 1
Format : AC-3
Format/Info : Audio Coding 3
Codec ID : 2000
Duration : 1h 58mn
Bit rate mode : Constant
Bit rate : 192 Kbps
Channel(s) : 2 channels
Channel positions : L R
Sampling rate : 48.0 KHz
Stream size : 163 MiB (12%)
Alignment : Split accross interleaves
Interleave, duration : 42 ms (1.00 video frame)
Interleave, preload duration : 500 ms
Скриншоты
Скачать

Скачать торрент! Говори это снова и снова / Kehtaa Hai Dil Baar Baar (Рахул Дхолакия / Rahul Dholakia) [2002, Индия, США, Мелодрама, комедия, DVDRip] MVO

Как скачивать? · Что такое торрент? · Рейтинг и ограничения

Сайт не распространяет и не хранит электронные версии произведений, а лишь предоставляет доступ к создаваемому пользователями каталогу ссылок на торрент-файлы, которые содержат только списки хеш-сумм

[Профиль] [ЛС]
Показать сообщения:    
Ответить на тему

Текущее время: Сегодня 18:50

Часовой пояс: GMT + 4



Вы не можете начинать темы
Вы не можете отвечать на сообщения
Вы не можете редактировать свои сообщения
Вы не можете удалять свои сообщения
Вы не можете голосовать в опросах
Вы не можете прикреплять файлы к сообщениям
Вы не можете скачивать файлы