Животное / Зверюга / Animal (Бретт Симмонс / Bret Simmons) [2014, США, ужасы, триллер, WEB-DLRip] VO (den904) + Original Eng

Ответить на тему
 
Автор Сообщение

user ®

Стаж: 7 лет 7 месяцев

Сообщений: 20008

Пост Пост: #1 от 22-Июн-2014 04:30

[Цитировать]

Животное / Зверюга / Animal
Страна: США
Жанр: ужасы, триллер
Год выпуска: 2014
Продолжительность: 01:21:47
Перевод: Одноголосый закадровый den904
Cубтитры: нет
Оригинальная аудиодорожка: английский
Режиссер: Бретт Симмонс / Bret Simmons
В ролях: Джереми Самптер, Джои Лорен Эдамс, Элизабет Гиллис, Паркер Янг, Кеке Палмер, Амори Ноласко, Пол Яконо, Ив, Торстен Кэй
Описание: Группа друзей хотела просто весело провести выходные, а в итоге они оказались в незнакомой местности, преследуемые грозным, жаждущим крови хищником…
Присутствует ненормативная лексика
Сэмпл: http://multi-up.com/981699
Качество видео: WEB-DLRip
Формат видео: AVI
Видео: Xvid 720x304 23.98fps 1 853 Kbps
Аудио: MPEG Audio Layer 3 48000Hz stereo 128kbps rus
Аудио 2: Dolby AC3 48000Hz 6ch 384kbps eng
MediaInfo
Format : AVI
Format/Info : Audio Video Interleave
File size : 1.36 GiB
Duration : 1h 21mn
Overall bit rate : 2 379 Kbps
Writing application : VirtualDubMod 1.5.10.3 | www.virtualdub-fr.org || (build 2550/release)
Writing library : VirtualDubMod build 2550/release
Video
ID : 0
Format : MPEG-4 Visual
Format profile : Advanced Simple@L5
Format settings, BVOP : Yes
Format settings, QPel : No
Format settings, GMC : No warppoints
Format settings, Matrix : Default (MPEG)
Muxing mode : Packed bitstream
Codec ID : XVID
Codec ID/Hint : XviD
Duration : 1h 21mn
Bit rate : 1 853 Kbps
Width : 720 pixels
Height : 304 pixels
Display aspect ratio : 2.35:1
Frame rate : 23.976 fps
Resolution : 8 bits
Colorimetry : 4:2:0
Scan type : Progressive
Bits/(Pixel*Frame) : 0.353
Stream size : 1.06 GiB (78%)
Writing library : XviD 1.2.1 (UTC 2008-12-04)
Audio #1
ID : 1
Format : MPEG Audio
Format version : Version 1
Format profile : Layer 3
Format_Settings_Mode : Joint stereo
Format_Settings_ModeExtension : MS Stereo
Codec ID : 55
Codec ID/Hint : MP3
Duration : 1h 21mn
Bit rate mode : Constant
Bit rate : 128 Kbps
Channel(s) : 2 channels
Sampling rate : 48.0 KHz
Stream size : 74.9 MiB (5%)
Alignment : Aligned on interleaves
Interleave, duration : 42 ms (1.00 video frame)
Interleave, preload duration : 504 ms
Audio #2
ID : 2
Format : AC-3
Format/Info : Audio Coding 3
Codec ID : 2000
Duration : 1h 21mn
Bit rate mode : Constant
Bit rate : 384 Kbps
Channel(s) : 6 channels
Channel positions : Front: L C R, Surround: L R, LFE
Sampling rate : 48.0 KHz
Stream size : 225 MiB (16%)
Alignment : Split accross interleaves
Interleave, duration : 42 ms (1.00 video frame)
Interleave, preload duration : 500 ms
Скриншот c названием фильма Скриншоты
Скачать

Скачать торрент!

Как скачивать? · Что такое торрент? · Рейтинг и ограничения

Сайт не распространяет и не хранит электронные версии произведений, а лишь предоставляет доступ к создаваемому пользователями каталогу ссылок на торрент-файлы, которые содержат только списки хеш-сумм

[Профиль] [ЛС]
Показать сообщения:    
Ответить на тему

Текущее время: Сегодня 00:17

Часовой пояс: GMT + 4



Вы не можете начинать темы
Вы не можете отвечать на сообщения
Вы не можете редактировать свои сообщения
Вы не можете удалять свои сообщения
Вы не можете голосовать в опросах
Вы не можете прикреплять файлы к сообщениям
Вы не можете скачивать файлы