Семь мам Семена Синебородько / Сiм мам Семена Синебородька (Людмила Ткачикова) [1992, мультфильм, DVB]

Ответить на тему
 
Автор Сообщение

user ®

Стаж: 7 лет 7 месяцев

Сообщений: 20008

Пост Пост: #1 от 21-Июн-2014 19:55

[Цитировать]

Семь мам Семена Синебородько / Сiм мам Семена Синебородька
Жанр: мультфильм
Год выпуска: 1992
Продолжительность: 00:09:47
Режиссёр: Людмила Ткачикова
Описание: мультфильм для детей по сказке Григория Остера. Однажды от неряхи и лентяя сына сбежала мама ...
Трансляция спутникового канала: "Перец"
Качество видео: DVB
Формат видео: MPEG-PS
Видео: MPEG2 Video, 720x576, 25 fps, 4300 kbps
Аудио: MPEG Audio, 2 сh, 48 kHz, 192 kbps
MediaInfo
General
Complete name : D:\Семь мам Семена Синебородько. (1992)_DVB by SLuMeP.mpg
Format : MPEG-PS
File size : 319 MiB
Duration : 9mn 47s
Overall bit rate mode : Variable
Overall bit rate : 4 556 Kbps
Video
ID : 224 (0xE0)
Format : MPEG Video
Format version : Version 2
Format profile : Main@Main
Format settings, BVOP : No
Format settings, Matrix : Custom
Format settings, GOP : Variable
Duration : 9mn 47s
Bit rate mode : Variable
Bit rate : 4 274 Kbps
Maximum bit rate : 15.0 Mbps
Width : 720 pixels
Height : 576 pixels
Display aspect ratio : 4:3
Frame rate : 25.000 fps
Standard : PAL
Color space : YUV
Chroma subsampling : 4:2:0
Bit depth : 8 bits
Scan type : Interlaced
Scan order : Top Field First
Compression mode : Lossy
Bits/(Pixel*Frame) : 0.412
Time code of first frame : 00:00:00:00
Time code source : Group of pictures header
Stream size : 299 MiB (94%)
Audio
ID : 192 (0xC0)
Format : MPEG Audio
Format version : Version 1
Format profile : Layer 2
Duration : 9mn 47s
Bit rate mode : Constant
Bit rate : 192 Kbps
Channel(s) : 2 channels
Sampling rate : 48.0 KHz
Compression mode : Lossy
Stream size : 13.4 MiB (4%)
Скриншоты
Скачать

Скачать торрент!

Как скачивать? · Что такое торрент? · Рейтинг и ограничения

Сайт не распространяет и не хранит электронные версии произведений, а лишь предоставляет доступ к создаваемому пользователями каталогу ссылок на торрент-файлы, которые содержат только списки хеш-сумм

[Профиль] [ЛС]
Показать сообщения:    
Ответить на тему

Текущее время: Сегодня 23:46

Часовой пояс: GMT + 4



Вы не можете начинать темы
Вы не можете отвечать на сообщения
Вы не можете редактировать свои сообщения
Вы не можете удалять свои сообщения
Вы не можете голосовать в опросах
Вы не можете прикреплять файлы к сообщениям
Вы не можете скачивать файлы