Апрельская история / Shigatsu monogatari / April Story (Сюндзи Иваи / Iwai Shunji) [1998 г., Япония, мелодрама, BDRip] MVO + Original + Sub (Rus, Eng)

Ответить на тему
 
Автор Сообщение

user ®

Стаж: 11 лет

Сообщений: 15151

Пост Пост: #1 от 21-Июн-2014 19:55

[Цитировать]

Апрельская историяShigatsu monogatari-- Год выпуска: 1998
Страна: Япония-Жанр: мелодрама
Продолжительность: 01:07:03
Перевод: Профессиональный (многоголосый, закадровый)
Субтитры: русские (x2), английские-Режиссер: Сюндзи Иваи / Iwai Shunji
Сценарий: Сюндзи Иваи / Iwai Shunji
Продюсер: Хидеми Сатани / Hidemi Satani
Оператор: Нобору Синода / Noboru Shinoda-В ролях: Такако Мацу (Nireno, Uzuki), Сэйити Танабэ (Yamazaki), Кахори Фудзий (Kitao, Teruko), Руми (Saeko Sono), Кадзухико Като (Kato), Кен Мицуйси (Salaryman Fu no Otoko), Йосукэ Эгути (Oda Nobunaga), Тацуя Исий (Akechi Mitsuhide), Масато Ибу (Saito Toshizo), Ёсиро Мацумото (Father), Норико Фудзима (Mother), Сомегоро Итикава (Son)-Описание: История молодой девушки, отправившейся учиться в Токио. Она не привыкла к жизни в большом городе. Она общается с ребятами из университета, покупает новый велосипед, и восхищается запахом цветущей вишни. Юзуки знакомится со своей соседкой и вскоре они становятся подругами. Она застенчива на занятиях, она смущается, когда преподаватель спрашивает, почему она выбрала именно этот университет. Девушка вступает в клуб ужения на муху. И, наконец, ей нравится длинноволосый молодой человек, работающий в местном книжном магазине.-kinopoisk.ru: 6.698 (61)
imdb.com: 7.30 (1518)-Качество: BDRip / Shigatsu.monogatari.1998.1080p.BluRay.AVC.Remux.HDCLUB
Контейнер: AVI
Видео: 704x288 (2.44:1), 23.976 fps, XviD MPEG-4 ~2193 kbps avg, 0.45 bit/pixel
Аудио: 48 kHz, AC3 Dolby Digital, 3/2 (L,C,R,l,r) + LFE ch, ~448 kbps (Rus)
Аудио: 48 kHz, AC3 Dolby Digital, 3/2 (L,C,R,l,r) + LFE ch, ~448 kbps (Eng)-
-
MediaInfo
General
Complete name                            : E:\Рипы\Shigatsu.monogatari.1998.BDRip.MVO.All.Films\Shigatsu.monogatari.1998.BDRip.MVO.All.Films.avi
Format                                   : AVI
Format/Info                              : Audio Video Interleave
File size                                : 1.45 GiB
Duration                                 : 1h 7mn
Overall bit rate                         : 3 105 Kbps
Movie name                               : Shigatsu.monogatari.1998.BDRip.MVO.All.Films
Director                                 : DIABLO93
Genre                                    : Drama/Romance
Writing application                      : VirtualDubMod 1.5.10.3 | www.virtualdub-fr.org || (build 2550/release)
Original source form/Name                : Movie
Copyright                                :
Video
ID                                       : 0
Format                                   : MPEG-4 Visual
Format profile                           : Advanced Simple@L5
Format settings, BVOP                    : 2
Format settings, QPel                    : No
Format settings, GMC                     : No warppoints
Format settings, Matrix                  : Custom
Codec ID                                 : XVID
Codec ID/Hint                            : XviD
Duration                                 : 1h 7mn
Bit rate                                 : 2 195 Kbps
Width                                    : 704 pixels
Height                                   : 288 pixels
Display aspect ratio                     : 2.40:1
Frame rate                               : 23.976 fps
Color space                              : YUV
Chroma subsampling                       : 4:2:0
Bit depth                                : 8 bits
Scan type                                : Progressive
Compression mode                         : Lossy
Bits/(Pixel*Frame)                       : 0.451
Stream size                              : 1.03 GiB (71%)
Writing library                          : XviD 65
Audio #1
ID                                       : 1
Format                                   : AC-3
Format/Info                              : Audio Coding 3
Mode extension                           : CM (complete main)
Format settings, Endianness              : Big
Codec ID                                 : 2000
Duration                                 : 1h 7mn
Bit rate mode                            : Constant
Bit rate                                 : 448 Kbps
Channel(s)                               : 6 channels
Channel positions                        : Front: L C R, Side: L R, LFE
Sampling rate                            : 48.0 KHz
Bit depth                                : 16 bits
Compression mode                         : Lossy
Stream size                              : 215 MiB (14%)
Alignment                                : Split accross interleaves
Interleave, duration                     : 42 ms (1.00 video frame)
Interleave, preload duration             : 500 ms
Audio #2
ID                                       : 2
Format                                   : AC-3
Format/Info                              : Audio Coding 3
Mode extension                           : CM (complete main)
Format settings, Endianness              : Big
Codec ID                                 : 2000
Duration                                 : 1h 7mn
Bit rate mode                            : Constant
Bit rate                                 : 448 Kbps
Channel(s)                               : 6 channels
Channel positions                        : Front: L C R, Side: L R, LFE
Sampling rate                            : 48.0 KHz
Bit depth                                : 16 bits
Compression mode                         : Lossy
Stream size                              : 215 MiB (14%)
Alignment                                : Split accross interleaves
Interleave, duration                     : 42 ms (1.00 video frame)
Interleave, preload duration             : 500 ms

-
Сэмпл Скриншоты
Скачать

Скачать торрент! Апрельская история / Shigatsu monogatari / April Story (Сюндзи Иваи / Iwai Shunji) [1998 г., Япония, мелодрама, BDRip] MVO + Original + Sub (Rus, Eng)

Как скачивать? · Что такое торрент? · Рейтинг и ограничения

Сайт не распространяет и не хранит электронные версии произведений, а лишь предоставляет доступ к создаваемому пользователями каталогу ссылок на торрент-файлы, которые содержат только списки хеш-сумм

[Профиль] [ЛС]
Показать сообщения:    
Ответить на тему

Текущее время: Сегодня 04:52

Часовой пояс: GMT + 4



Вы не можете начинать темы
Вы не можете отвечать на сообщения
Вы не можете редактировать свои сообщения
Вы не можете удалять свои сообщения
Вы не можете голосовать в опросах
Вы не можете прикреплять файлы к сообщениям
Вы не можете скачивать файлы