Бегущие мишени / Moving Targets / San jaat si hing (Джин Вонг / Jing Wong) [2004, Гонконг, боевик, драма, DVDRip] MVO

Ответить на тему
 
Автор Сообщение

user ®

Стаж: 11 лет

Сообщений: 15151

Пост Пост: #1 от 21-Июн-2014 13:35

[Цитировать]

Бегущие мишени / Moving Targets / San jaat si hing
Страна: Гонконг
Студия: Film Power Company Limited, Jing's Production, Universe Entertainment
Жанр: боевик, драма
Год выпуска: 2004
Продолжительность: 01:34:30
Перевод: Профессиональный (многоголосый закадровый)
Cубтитры: нет
Оригинальная аудиодорожка: нет
Режиссер: Джин Вонг / Jing Wong
В ролях: Николас Це / Nicholas Tse Эдисон Чен / Edison Chen Саймон Ям / Simon Yam Гиллиан Чун / Gillian Chung Мишель Ми / Michelle Mee Рой Чоу / Roy Chow Сует Лам / Suet Lam Кен Тон / Ken Tong и др...
Описание: Они были лучшими друзьями еще со школьной скамьи. Они вместе окончили школу полиции. Но судьба развела из по разные стороны баррикад. Они стали мишенями друг для друга. Но общая цель снова сводит их вместе. Их мишень - Большой Брайан - глава наркосиндиката. У него своя армия наемных убийц. Но охота за мишенями только началась, и еще не известно, кто останется жив в этой кровавой охоте...
II Сэмпл II IMDB II
Релиз группа:
Качество видео: DVDRip
Формат видео: AVI
Видео: Xvid 640x352 (16:9) 23.976fps Bit rate 903Kbps b/p 0.167
Аудио: AC3 48.0 KHz 2ch. 192kbps rus mvo
MediaInfo
Общее
Полное имя : E:\torrent\Moving.Targets.2004.DVDRip.avi
Формат : AVI
Формат/Информация : Audio Video Interleave
Размер файла : 746 Мбайт
Продолжительность : 1 ч. 34 м.
Общий поток : 1104 Кбит/сек
Библиотека кодирования : VirtualDub build 35390/release
Видео
Идентификатор : 0
Формат : MPEG-4 Visual
Профиль формата : Advanced Simple@L5
Параметр BVOP формата : 1
Параметр QPel формата : Нет
Параметр GMC формата : Без точки перехода
Параметр матрицы формата : Default (MPEG)
Идентификатор кодека : XVID
Идентификатор кодека/Подсказка : XviD
Продолжительность : 1 ч. 34 м.
Битрейт : 903 Кбит/сек
Ширина : 640 пикселей
Высота : 352 пикселя
Соотношение сторон : 16:9
Частота кадров : 23,976 кадра/сек
Цветовое пространство : YUV
Субдискретизация насыщенности : 4:2:0
Битовая глубина : 8 бит
Тип развёртки : Прогрессивная
Метод сжатия : С потерями
Бит/(Пиксели*Кадры) : 0.167
Размер потока : 610 Мбайт (82%)
Библиотека кодирования : XviD 1.2.1 (UTC 2008-12-04)
Аудио
Идентификатор : 1
Формат : AC-3
Формат/Информация : Audio Coding 3
Расширение режима : CM (complete main)
Параметр Endianness формата : Big
Идентификатор кодека : 2000
Продолжительность : 1 ч. 34 м.
Вид битрейта : Постоянный
Битрейт : 192 Кбит/сек
Каналы : 2 канала
Расположение каналов : Front: L R
Частота : 48,0 КГц
Битовая глубина : 16 бит
Метод сжатия : С потерями
Размер потока : 130 Мбайт (17%)
Выравнивание : Соединение по промежуткам
Продолжительность промежутка : 42 мс. (1,00 видеокадр)
Время предзагрузки промежутка : 512 мс.
Скриншот c названием фильма Скриншоты
Скачать

Скачать торрент! Бегущие мишени / Moving Targets / San jaat si hing (Джин Вонг / Jing Wong) [2004, Гонконг, боевик, драма, DVDRip] MVO

Как скачивать? · Что такое торрент? · Рейтинг и ограничения

Сайт не распространяет и не хранит электронные версии произведений, а лишь предоставляет доступ к создаваемому пользователями каталогу ссылок на торрент-файлы, которые содержат только списки хеш-сумм

[Профиль] [ЛС]
Показать сообщения:    
Ответить на тему

Текущее время: Сегодня 10:51

Часовой пояс: GMT + 4



Вы не можете начинать темы
Вы не можете отвечать на сообщения
Вы не можете редактировать свои сообщения
Вы не можете удалять свои сообщения
Вы не можете голосовать в опросах
Вы не можете прикреплять файлы к сообщениям
Вы не можете скачивать файлы