Восьмерка (Алексей Учитель) [2013, Боевик, мелодрама, WEB-DLRip-AVC]

Ответить на тему
 
Автор Сообщение

user ®

Стаж: 7 лет 7 месяцев

Сообщений: 20008

Пост Пост: #1 от 21-Июн-2014 13:35

[Цитировать]

Восьмерка
«Любовь без тормозов»


Страна: Россия
Студия: ТПО Рок
Жанр: боевик, мелодрама
Год выпуска: 2013
Продолжительность: 01:21:50
Перевод: Не требуется (русский)
Cубтитры: Нет
Режиссер:
Алексей Учитель
В ролях:
Артур Смольянинов, Вильма Кутавичюте, Алексей Манцыгин, Александр Новин, Артем Быстров, Павел Ворожцов, Захар Прилепин, Ирина Пегова, Сергей Пускепалис, Владимир Пирожок.
Описание:
Любовь без тормозов становится причиной смертельной схватки между четверкой молодых парней из спецназа и бандой, которая держит в страхе весь город.

Релиз:
Автор рипа: Stalker oK
Сэмпл: multi-up
Качество видео: WEB-DLRip-AVC [WEB-DL.720p]
Формат видео: MKV
Видео кодек: AVC
Аудио кодек: AC3
Видео: 2157 Кбит/сек, 1024*576 (16:9), в 25,000 кадр/сек, AVC
Аудио: Russian, 384 Кбит/сек, 48,0 КГц, 16 бит, 6 канала(ов), AC-3

MediaInfo
Общее
Уникальный идентификатор : 247032132717026202503085998369788844058 (0xB9D8A87D575E901F8F4021607C42D81A)
Полное имя : E:\рипы\Vosmerka.2014.WEB-DLRip-AVC...stalkerok.new-team.mkv
Формат : Matroska
Размер файла : 1,45 Гбайт
Продолжительность : 1 ч. 21 м.
Общий поток : 2542 Кбит/сек
Название фильма : Восьмерка (2014) (New-Team) (Rip by Stalker oK)
Дата кодирования : UTC 2014-06-21 06:32:55
Программа кодирования : mkvmerge v6.1.0 ('Old Devil') built on Mar 4 2013 09:10:42
Библиотека кодирования : libebml v1.3.0 + libmatroska v1.4.0
Видео
Идентификатор : 1
Формат : AVC
Формат/Информация : Advanced Video Codec
Профиль формата : High@L4.1
Параметр CABAC формата : Да
Параметр ReFrames формата : 12 кадры
Параметры GOP формата : N=1
Идентификатор кодека : V_MPEG4/ISO/AVC
Продолжительность : 1 ч. 21 м.
Битрейт : 2157 Кбит/сек
Ширина : 1024 пикс.
Высота : 576 пикс.
Соотношение сторон : 16:9
Частота кадров : 25,000 кадр/сек
Цветовое пространство : YUV
Подвыборка цветности : 4:2:0
Битовая глубина : 8 бит
Тип развёртки : Прогрессивная
Бит/(Пиксели*Кадры) : 0.146
Размер потока : 1,20 Гбайт (83%)
Библиотека кодирования : x264 core 138 r2358 9e941d1
Настройки программы : cabac=1 / ref=12 / deblock=1:-2:-1 / analyse=0x3:0x133 / me=umh / subme=11 / psy=1 / psy_rd=1.00:0.15 / mixed_ref=1 / me_range=48 / chroma_me=1 / trellis=2 / 8x8dct=1 / cqm=0 / deadzone=21,11 / fast_pskip=0 / chroma_qp_offset=-3 / threads=12 / lookahead_threads=3 / sliced_threads=0 / nr=0 / decimate=0 / interlaced=0 / bluray_compat=0 / constrained_intra=0 / bframes=13 / b_pyramid=2 / b_adapt=2 / b_bias=0 / direct=3 / weightb=1 / open_gop=0 / weightp=2 / keyint=250 / keyint_min=25 / scenecut=40 / intra_refresh=0 / rc_lookahead=80 / rc=2pass / mbtree=1 / bitrate=2157 / ratetol=1.0 / qcomp=0.65 / qpmin=0 / qpmax=69 / qpstep=4 / cplxblur=20.0 / qblur=0.5 / vbv_maxrate=20000 / vbv_bufsize=25000 / nal_hrd=none / ip_ratio=1.40 / aq=2:1.00
Аудио
Идентификатор : 2
Формат : AC-3
Формат/Информация : Audio Coding 3
Расширение режима : CM (complete main)
Идентификатор кодека : A_AC3
Продолжительность : 1 ч. 21 м.
Вид битрейта : Постоянный
Битрейт : 384 Кбит/сек
Канал(ы) : 6 канала(ов)
Расположение каналов : Front: L C R, Side: L R, LFE
Частота : 48,0 КГц
Битовая глубина : 16 бит
Метод сжатия : С потерями
Размер потока : 225 Мбайт (15%)
Язык : Russian
Меню
00:00:00.000 : en:Глава 1
00:05:10.000 : en:Глава 2
00:10:48.000 : en:Глава 3
00:14:58.000 : en:Глава 4
00:19:45.000 : en:Глава 5
00:25:49.000 : en:Глава 6
00:30:16.000 : en:Глава 7
00:35:20.000 : en:Глава 8
00:39:32.000 : en:Глава 9
00:44:07.000 : en:Глава 10
00:49:57.000 : en:Глава 11
00:55:52.000 : en:Глава 12
01:02:33.000 : en:Глава 13
01:08:11.000 : en:Глава 14
01:13:06.000 : en:Глава 15
Скриншоты
Скачать

Скачать торрент!

Как скачивать? · Что такое торрент? · Рейтинг и ограничения

Сайт не распространяет и не хранит электронные версии произведений, а лишь предоставляет доступ к создаваемому пользователями каталогу ссылок на торрент-файлы, которые содержат только списки хеш-сумм

[Профиль] [ЛС]
Показать сообщения:    
Ответить на тему

Текущее время: Сегодня 12:35

Часовой пояс: GMT + 4



Вы не можете начинать темы
Вы не можете отвечать на сообщения
Вы не можете редактировать свои сообщения
Вы не можете удалять свои сообщения
Вы не можете голосовать в опросах
Вы не можете прикреплять файлы к сообщениям
Вы не можете скачивать файлы