Мама, я женюсь! (Петр Степин) [2014, Мелодрама, HDTVRip]

Ответить на тему
 
Автор Сообщение

user ®

Стаж: 7 лет 7 месяцев

Сообщений: 20008

Пост Пост: #1 от 20-Июн-2014 17:10

[Цитировать]

Название фильма: Мама, я женюсь!
Жанр: Мелодрама
Год выпуска: 2014
Продолжительность: 01:28:00
Режиссёр: Петр Степин
В ролях: Алёна Яковлева, Денис Паршин, Владимир Литвинов, Дарья Баранова, Алеся Пуховая, Светлана Клименко, Людмила Баталова, Андрей Дробыш, Ольга Бурлакова, Антон Старовойтов, Андрей Олиференко, Наталья Онищенко, Андрей Кривецкий, Евгения Сацук
Описание: Одинокая и разочарованная Татьяна Сергеевна Ракитина работает в загсе. Каждый день она видит счастливых молодоженов и… только раздражается. Самой Татьяне ее работа давно перестала приносить радость и превратилась в рутину. Весь смысл своей жизни она видит лишь в сыне Дмитрии. О нем Татьяна усиленно заботится, указывая, чем заниматься и с кем встречаться, совершенно забывая, что «мальчик» уже вырос. Однажды Дмитрий ставит маму перед фактом: он намерен жениться. Это известие рушит весь мир Татьяны. Она объявляет настоящую войну потенциальной невестке Даше...
Сэмпл: http://multi-up.com/981421 Рип от: Шкипер
Качество видео: HDTVRip
Формат видео: AVI
Видео: 720x400 (1.80:1), 25 fps, XviD build 73 ~1036 kbps avg, 0.14 bit/pixel
Аудио: 48 kHz, MPEG Layer 3, 2 ch, ~128.00 kbps avg
MediaInfo
General
Complete name : D:\Торренты\МОИ РИП РАЗДАЧИ\Мама я женюсь\Mama.ya.zhenyus.2013.HDTVRip-Шкипер.avi
Format : AVI
Format/Info : Audio Video Interleave
File size : 745 MiB
Duration : 1h 28mn
Overall bit rate : 1 175 Kbps
Writing application : VirtualDubMod 1.5.10.3 | www.virtualdub-fr.org || (build 2550/release)
Writing library : VirtualDubMod build 2550/release
Video
ID : 0
Format : MPEG-4 Visual
Format profile : Advanced Simple@L5
Format settings, BVOP : 2
Format settings, QPel : No
Format settings, GMC : No warppoints
Format settings, Matrix : Default (H.263)
Codec ID : XVID
Codec ID/Hint : XviD
Duration : 1h 28mn
Bit rate : 1 037 Kbps
Width : 720 pixels
Height : 400 pixels
Display aspect ratio : 16:9
Frame rate : 25.000 fps
Color space : YUV
Chroma subsampling : 4:2:0
Bit depth : 8 bits
Scan type : Progressive
Compression mode : Lossy
Bits/(Pixel*Frame) : 0.144
Stream size : 658 MiB (88%)
Writing library : XviD 73
Audio
ID : 1
Format : MPEG Audio
Format version : Version 1
Format profile : Layer 3
Codec ID : 55
Codec ID/Hint : MP3
Duration : 1h 28mn
Bit rate mode : Constant
Bit rate : 128 Kbps
Channel(s) : 2 channels
Sampling rate : 48.0 KHz
Compression mode : Lossy
Stream size : 81.2 MiB (11%)
Alignment : Aligned on interleaves
Interleave, duration : 40 ms (1.00 video frame)
Interleave, preload duration : 504 ms
Writing library : LAME3.99r
Encoding settings : -m s -V 4 -q 2 -lowpass 17 -b 128
Скриншот c названием фильма Скриншоты
Скачать

Скачать торрент!

Как скачивать? · Что такое торрент? · Рейтинг и ограничения

Сайт не распространяет и не хранит электронные версии произведений, а лишь предоставляет доступ к создаваемому пользователями каталогу ссылок на торрент-файлы, которые содержат только списки хеш-сумм

[Профиль] [ЛС]
Показать сообщения:    
Ответить на тему

Текущее время: Сегодня 12:52

Часовой пояс: GMT + 4



Вы не можете начинать темы
Вы не можете отвечать на сообщения
Вы не можете редактировать свои сообщения
Вы не можете удалять свои сообщения
Вы не можете голосовать в опросах
Вы не можете прикреплять файлы к сообщениям
Вы не можете скачивать файлы