Эксперимент Ганцфельда / The Ganzfeld Haunting (Майкл Обловитц / Michael Oblowitz) [2014, США, ужасы, триллер, HDRip] VO (Xixidok)

Ответить на тему
 
Автор Сообщение

user ®

Стаж: 7 лет 7 месяцев

Сообщений: 20008

Пост Пост: #1 от 20-Июн-2014 17:10

[Цитировать]

Эксперимент Ганцфельда / The Ganzfeld Haunting
Страна: США
Жанр: ужасы, триллер
Год выпуска: 2014
Продолжительность: 01:26:04
Перевод: Одноголосый закадровый Xixidok
Cубтитры: нет
Режиссер: Майкл Обловитц / Michael Oblowitz
В ролях: Дианна Камачо, Тейлор Коул, Райан Доноху, Кимберли Эстрада, Микайла Фигуроа, Тоби Хемингуэй, Коуди Хауэлл, Холт МакКэллани, Доминик Пёрселл, Рико Симонини
Описание: Четверо ребят-студентов уезжают в загородный заброшенный особняк, чтобы провести в нем выходные и поставить опасный эксперимент Ганцфельда, который, по сути, является тестом на выявление паранормальных способностей... Поначалу поездка выглядит как увлекательное приключение. Ребята привозят с собой в большой двухэтажный дом огромное количество видео и звукозаписывающей аппаратуры, чтобы отследить каждое свое действие и все происходящие во время эксперимента события. Также они запасаются наркотиками и алкоголем, чтобы как следует «подогреть» свой разум во время опыта. Но в самый разгар опыта в доме начинают происходить странные вещи… Со временем герои понимают, что они в этом доме явно не одни, и здесь их ждет нечто ужасное. Удастся ли молодым психологам разобраться в происходящем и вырваться из страшного особняка до того, как в нем произойдут жуткие события, которые уже невозможно будет исправить?
Сэмпл: http://multi-up.com/981374
Качество видео: HDRip (The.Ganzfeld.Haunting.2014 HDRip XViD juggs)
Формат видео: AVI
Видео: XviD, 996 Kbps, 640 х 272 pixels, 23.976 fps
Аудио: MP3, 192 Kbps, 2 channels, 44.1 KHz
MediaInfo
General
Complete name : D:\kirovtorrent\The.Ganzfeld.Haunting.2014 HDRip.700mb.avi
Format : AVI
Format/Info : Audio Video Interleave
File size : 737 MiB
Duration : 1h 26mn
Overall bit rate : 1 197 Kbps
Writing application : VirtualDubMod 1.5.10.3 (build 2550/release)
Writing library : VirtualDubMod build 2550/release
Video
ID : 0
Format : MPEG-4 Visual
Format profile : Advanced Simple@L5
Format settings, BVOP : Yes
Format settings, QPel : No
Format settings, GMC : No warppoints
Format settings, Matrix : Default (H.263)
Codec ID : XVID
Codec ID/Hint : XviD
Duration : 1h 26mn
Bit rate : 996 Kbps
Width : 640 pixels
Height : 272 pixels
Display aspect ratio : 2.35:1
Frame rate : 23.976 fps
Color space : YUV
Chroma subsampling : 4:2:0
Bit depth : 8 bits
Scan type : Progressive
Compression mode : Lossy
Bits/(Pixel*Frame) : 0.239
Stream size : 613 MiB (83%)
Writing library : XviD 64
Audio
ID : 1
Format : MPEG Audio
Format version : Version 1
Format profile : Layer 3
Codec ID : 55
Codec ID/Hint : MP3
Duration : 1h 26mn
Bit rate mode : Constant
Bit rate : 192 Kbps
Channel(s) : 2 channels
Sampling rate : 44.1 KHz
Compression mode : Lossy
Delay relative to video : 13ms
Stream size : 118 MiB (16%)
Alignment : Split accross interleaves
Interleave, duration : 42 ms (1.00 video frame)
Interleave, preload duration : 500 ms
Скриншот c названием фильма Скриншоты
Скачать

Скачать торрент!

Как скачивать? · Что такое торрент? · Рейтинг и ограничения

Сайт не распространяет и не хранит электронные версии произведений, а лишь предоставляет доступ к создаваемому пользователями каталогу ссылок на торрент-файлы, которые содержат только списки хеш-сумм

[Профиль] [ЛС]
Показать сообщения:    
Ответить на тему

Текущее время: Сегодня 18:04

Часовой пояс: GMT + 4



Вы не можете начинать темы
Вы не можете отвечать на сообщения
Вы не можете редактировать свои сообщения
Вы не можете удалять свои сообщения
Вы не можете голосовать в опросах
Вы не можете прикреплять файлы к сообщениям
Вы не можете скачивать файлы