Тада – мастер на все руки из Махоро / Tada\'s Do-It-All House / Mahoro ekimae Tada benriken (Тацуси Омори / Tatsushi Ohmori) [2011, Япония, драма, HDRip] VO [gracer]

Ответить на тему
 
Автор Сообщение

user ®

Стаж: 11 лет

Сообщений: 15151

Пост Пост: #1 от 20-Июн-2014 02:15

[Цитировать]

Тада – мастер на все руки из Махоро / Tada's Do-It-All House / Mahoro ekimae Tada benriken- -Страна: Япония
Жанр: драма
Год выпуска: 2011
Продолжительность: 02:03:16-Перевод: Одноголосый закадровый [gracer]-Cубтитры: нет
Оригинальная аудиодорожка: нет
Режиссер: Тацуси Омори / Tatsushi Ohmori
В ролях: Эйта, Рюхэй Мацуда, Тасуку Эмото, Манами Хондзё, Рейко Катаока, Иттоку Кисибэ, Кенго Кора, Акадзи Маро, Сузуки Мацуо, Масаки Миура...
Описание: Махоро — это один из районов Токио, окраина. Не деревня, но и не мегаполис. Именно здесь живет Тада — мастер на все руки, который больше похож на хозяина ресторанчика, где подают рамэн. Он берется за любую работу: проверяет расписание автобусов, чинит двери, подметает опавшие листья и присматривает за собаками. Однажды, после очередной работенки, он встречает Гётена — своего бывшего одноклассника, который сидит в одних шлепках и ждет автобус.
Релиз от -
Сэмпл: http://multi-up.com/981189
Качество видео: HDRip
Формат видео: AVI
Видео: MPEG-4 Visual at 1467 Кбит/сек; 720 x 384 (1.875) at 23.976 fps
Аудио: AC-3 at 224 Кбит/сек; 2 канала, 48,0 КГц
Автор -
MediaInfo
Общее
Полное имя : D:\Фильмы\Азиатские\Тада – мастер на все руки из Махоро\Mahoro Ekimae Tada Benriken.2011.HDRip.XviD.1400MB. rip by [Assassin's Creed].avi
Формат : AVI
Формат/Информация : Audio Video Interleave
Размер файла : 1,46 Гбайт
Продолжительность : 2 ч. 3 м.
Общий поток : 1700 Кбит/сек
Программа кодирования : VirtualDubMod 1.5.10.3 | www.virtualdub-fr.org || (build 2550/release)
Библиотека кодирования : VirtualDubMod build 2550/release
Видео
Идентификатор : 0
Формат : MPEG-4 Visual
Профиль формата : Advanced Simple@L5
Параметр BVOP формата : 1
Параметр QPel формата : Нет
Параметр GMC формата : Без точки перехода
Параметр матрицы формата : Default (MPEG)
Идентификатор кодека : XVID
Идентификатор кодека/Подсказка : XviD
Продолжительность : 2 ч. 3 м.
Битрейт : 1467 Кбит/сек
Ширина : 720 пикселей
Высота : 384 пикселя
Соотношение сторон : 1,85:1
Частота кадров : 23,976 кадра/сек
Цветовое пространство : YUV
Субдискретизация насыщенности : 4:2:0
Битовая глубина : 8 бит
Тип развёртки : Прогрессивная
Метод сжатия : С потерями
Бит/(Пиксели*Кадры) : 0.221
Размер потока : 1,26 Гбайт (86%)
Библиотека кодирования : XviD 1.2.1 (UTC 2008-12-04)
Аудио
Идентификатор : 1
Формат : AC-3
Формат/Информация : Audio Coding 3
Расширение режима : CM (complete main)
Параметр Endianness формата : Big
Идентификатор кодека : 2000
Продолжительность : 2 ч. 3 м.
Вид битрейта : Постоянный
Битрейт : 224 Кбит/сек
Каналы : 2 канала
Расположение каналов : Front: L R
Частота : 48,0 КГц
Битовая глубина : 16 бит
Метод сжатия : С потерями
Размер потока : 197 Мбайт (13%)
Выравнивание : Разделение по промежуткам
Продолжительность промежутка : 42 мс. (1,00 видеокадр)
Время предзагрузки промежутка : 500 мс.
Скриншот c названием фильма Скриншоты
Скачать

Скачать торрент! Тада – мастер на все руки из Махоро / Tada\'s Do-It-All House / Mahoro ekimae Tada benriken (Тацуси Омори / Tatsushi Ohmori) [2011, Япония, драма, HDRip] VO [gracer]

Как скачивать? · Что такое торрент? · Рейтинг и ограничения

Сайт не распространяет и не хранит электронные версии произведений, а лишь предоставляет доступ к создаваемому пользователями каталогу ссылок на торрент-файлы, которые содержат только списки хеш-сумм

[Профиль] [ЛС]
Показать сообщения:    
Ответить на тему

Текущее время: Сегодня 21:31

Часовой пояс: GMT + 4



Вы не можете начинать темы
Вы не можете отвечать на сообщения
Вы не можете редактировать свои сообщения
Вы не можете удалять свои сообщения
Вы не можете голосовать в опросах
Вы не можете прикреплять файлы к сообщениям
Вы не можете скачивать файлы