Полночь FM / Полночное радио / Midnight FM / Simya-ui FM (Ким Санг Ман / Kim Sang Man) [2010, Южная Корея, триллер, HDRip] VO [den904] + original Kor Sub (rus, eng)

Ответить на тему
 
Автор Сообщение

user ®

Стаж: 11 лет

Сообщений: 15151

Пост Пост: #1 от 20-Июн-2014 02:15

[Цитировать]

Полночь FM / Полночное радио / Midnight FM / Simya-ui FM- -Страна: Южная Корея
Жанр: триллер
Год выпуска: 2010
Продолжительность: 01:43:28-Перевод: Одноголосый закадровый [den904]-Cубтитры: русские, английские [отдельно]
Оригинальная аудиодорожка: корейский
Режиссер: Ким Санг Ман / Kim Sang Man
В ролях: Су Э, Чжи Тхэ Ю, Чжон Ха Ли, Да Ын Шин, Хе Вон Чхве, Дон Сок Ма, Сон Хён Чхве, Ман Сик Чон, Мин Кю Ким, Сук Хён Чо, Хюна Ким, Чжи Хён Нам, Бён Кю Квак
Описание: Популярная радиоведущая заканчивает последний выпуск ночных новостей, после чего планирует подготовить свою больную дочь к поездке в Америку следующим утром... Но во время передачи, она получает странное сообщение...из дома. В прямом эфире Сон Ён попытается спасти свою семью от таинственного психопата Хан Дон Су...
Релиз от -
Сэмпл: http://multi-up.com/981316
Качество видео: HDRip
Формат видео: AVI
Видео: MPEG-4 Visual at 2091 Кбит/сек; 720 x 304 (2.368) at 23.976 fps
Аудио: AC-3 at 448 Кбит/сек; 6 каналов, 48,0 КГц [VO]
Аудио: AC-3 at 448 Кбит/сек; 6 каналов, 48,0 КГц [Kor]
Автор -
MediaInfo
Общее
Полное имя : D:\Фильмы\Азиатские\Полночь FM\Midnight FM.2010.HDRip.XviD.2200MB. rip by [Assassin's Creed]\Midnight FM.2010.HDRip.XviD.2200MB. rip by [Assassin's Creed].avi
Формат : AVI
Формат/Информация : Audio Video Interleave
Профиль формата : OpenDML
Размер файла : 2,17 Гбайт
Продолжительность : 1 ч. 43 м.
Общий поток : 3005 Кбит/сек
Программа кодирования : VirtualDubMod 1.5.10.2 (build 2540/release)
Библиотека кодирования : VirtualDubMod build 2540/release
Видео
Идентификатор : 0
Формат : MPEG-4 Visual
Профиль формата : Advanced Simple@L5
Параметр BVOP формата : 1
Параметр QPel формата : Нет
Параметр GMC формата : Без точки перехода
Параметр матрицы формата : Default (MPEG)
Идентификатор кодека : XVID
Идентификатор кодека/Подсказка : XviD
Продолжительность : 1 ч. 43 м.
Битрейт : 2091 Кбит/сек
Ширина : 720 пикселей
Высота : 304 пикселя
Соотношение сторон : 2,35:1
Частота кадров : 23,976 кадра/сек
Цветовое пространство : YUV
Субдискретизация насыщенности : 4:2:0
Битовая глубина : 8 бит
Тип развёртки : Прогрессивная
Метод сжатия : С потерями
Бит/(Пиксели*Кадры) : 0.398
Размер потока : 1,51 Гбайт (70%)
Библиотека кодирования : XviD 1.2.1 (UTC 2008-12-04)
Аудио #1
Идентификатор : 1
Формат : AC-3
Формат/Информация : Audio Coding 3
Расширение режима : CM (complete main)
Параметр Endianness формата : Big
Идентификатор кодека : 2000
Продолжительность : 1 ч. 43 м.
Вид битрейта : Постоянный
Битрейт : 448 Кбит/сек
Каналы : 6 каналов
Расположение каналов : Front: L C R, Side: L R, LFE
Частота : 48,0 КГц
Битовая глубина : 16 бит
Метод сжатия : С потерями
Размер потока : 332 Мбайт (15%)
Выравнивание : Разделение по промежуткам
Продолжительность промежутка : 42 мс. (1,00 видеокадр)
Время предзагрузки промежутка : 500 мс.
Аудио #2
Идентификатор : 2
Формат : AC-3
Формат/Информация : Audio Coding 3
Расширение режима : CM (complete main)
Параметр Endianness формата : Big
Идентификатор кодека : 2000
Продолжительность : 1 ч. 43 м.
Вид битрейта : Постоянный
Битрейт : 448 Кбит/сек
Каналы : 6 каналов
Расположение каналов : Front: L C R, Side: L R, LFE
Частота : 48,0 КГц
Битовая глубина : 16 бит
Метод сжатия : С потерями
Размер потока : 332 Мбайт (15%)
Выравнивание : Разделение по промежуткам
Продолжительность промежутка : 42 мс. (1,00 видеокадр)
Время предзагрузки промежутка : 500 мс.
Общее
Полное имя : D:\Фильмы\Азиатские\Полночь FM\Midnight FM.2010.HDRip.XviD.2200MB. rip by [Assassin's Creed]\Midnight FM.2010.HDRip.XviD.2200MB. rip by [Assassin's Creed].eng.srt
Формат : SubRip
Размер файла : 75,1 Кбайт
Текст
Формат : SubRip
Метод сжатия : Без потерь
Общее
Полное имя : D:\Фильмы\Азиатские\Полночь FM\Midnight FM.2010.HDRip.XviD.2200MB. rip by [Assassin's Creed]\Midnight FM.2010.HDRip.XviD.2200MB. rip by [Assassin's Creed].rus.srt
Формат : SubRip
Размер файла : 100 Кбайт
Текст
Формат : SubRip
Метод сжатия : Без потерь
Скриншот c названием фильма Скриншоты
Скачать

Скачать торрент! Полночь FM / Полночное радио / Midnight FM / Simya-ui FM (Ким Санг Ман / Kim Sang Man) [2010, Южная Корея, триллер, HDRip] VO [den904] + original Kor Sub (rus, eng)

Как скачивать? · Что такое торрент? · Рейтинг и ограничения

Сайт не распространяет и не хранит электронные версии произведений, а лишь предоставляет доступ к создаваемому пользователями каталогу ссылок на торрент-файлы, которые содержат только списки хеш-сумм

[Профиль] [ЛС]
Показать сообщения:    
Ответить на тему

Текущее время: Сегодня 22:32

Часовой пояс: GMT + 4



Вы не можете начинать темы
Вы не можете отвечать на сообщения
Вы не можете редактировать свои сообщения
Вы не можете удалять свои сообщения
Вы не можете голосовать в опросах
Вы не можете прикреплять файлы к сообщениям
Вы не можете скачивать файлы