Гол живых мертвецов / Goal of the Dead (Тьерри Пуаро / Thierry Poiraud, Бенжамен Роше / Benjamin Rocher) [2014, Франция, Ужасы, комедия, HDRip] VO (den904)

Ответить на тему
 
Автор Сообщение

user ®

Стаж: 7 лет 7 месяцев

Сообщений: 20008

Пост Пост: #1 от 20-Июн-2014 02:15

[Цитировать]

Гол живых мертвецов / Goal of the Dead - Страна: Франция
Жанр: Ужасы, комедия
Год выпуска: 2014
Продолжительность: 02:01:04-Перевод: Одноголосый закадровый (den904)
Cубтитры: Нет-Режиссер: Тьерри Пуаро, Бенжамен Роше / Thierry Poiraud, Benjamin Rocher
В ролях: Элбан Ленуар, Чарли Брунэо, Тифен Давьо, Ахмед Силла, Бруно Саломон, Патрик Лигарде, Ксавье Лоран, Себастьен Вандерберг, Дженни Арассе, Жан Франсуа Кэйри-Описание: Футболисты одной из лучших французских команд в конце игрового сезона приезжают в Каплонг, небольшой город на северо-востоке страны, чтобы поучаствовать в товарищеском матче с местными спортсменами. Однако одновременно с началом матча вспыхивает ужасная эпидемия, распространяющаяся по городу со скоростью лесного пожара. Таинственная инфекция превращает зараженных в жестоких зомби, жаждущих крови-Внимание! Присутствует ненормативная лексика!-Сэмпл: http://sendfile.su/992138-Качество видео: HDRip
Формат видео: AVI
Видео: XviD, 720x304, 23.976fps, 1265kbps
Аудио: AC3, 48000Hz, 6ch, 448kbps

MediaInfo
Complete name : D:\3.Торренты\Goal.Of.The.Dead.2014.L1.HDRip.avi
Format : AVI
Format/Info : Audio Video Interleave
File size : 1.46 GiB
Duration : 2h 1mn
Overall bit rate : 1 722 Kbps
Writing application : VirtualDubMod 1.5.10.3 | www.virtualdub-fr.org || (build 2550/release)
Writing library : VirtualDubMod build 2550/release
Video
ID : 0
Format : MPEG-4 Visual
Format profile : Advanced Simple@L5
Format settings, BVOP : 1
Format settings, QPel : No
Format settings, GMC : No warppoints
Format settings, Matrix : Custom
Codec ID : XVID
Codec ID/Hint : XviD
Duration : 2h 1mn
Bit rate : 1 265 Kbps
Width : 720 pixels
Height : 304 pixels
Display aspect ratio : 2.35:1
Frame rate : 23.976 fps
Color space : YUV
Chroma subsampling : 4:2:0
Bit depth : 8 bits
Scan type : Progressive
Compression mode : Lossy
Bits/(Pixel*Frame) : 0.241
Stream size : 1.07 GiB (73%)
Writing library : XviD 1.2.1 (UTC 2008-12-04)
Audio
ID : 1
Format : AC-3
Format/Info : Audio Coding 3
Mode extension : CM (complete main)
Format settings, Endianness : Big
Codec ID : 2000
Duration : 2h 1mn
Bit rate mode : Constant
Bit rate : 448 Kbps
Channel(s) : 6 channels
Channel positions : Front: L C R, Side: L R, LFE
Sampling rate : 48.0 KHz
Bit depth : 16 bits
Compression mode : Lossy
Stream size : 388 MiB (26%)
Alignment : Split accross interleaves
Interleave, duration : 42 ms (1.00 video frame)
Interleave, preload duration : 500 ms
Скриншот c названием фильма Скриншоты
Скачать

Скачать торрент!

Как скачивать? · Что такое торрент? · Рейтинг и ограничения

Сайт не распространяет и не хранит электронные версии произведений, а лишь предоставляет доступ к создаваемому пользователями каталогу ссылок на торрент-файлы, которые содержат только списки хеш-сумм

[Профиль] [ЛС]
Показать сообщения:    
Ответить на тему

Текущее время: Сегодня 05:11

Часовой пояс: GMT + 4



Вы не можете начинать темы
Вы не можете отвечать на сообщения
Вы не можете редактировать свои сообщения
Вы не можете удалять свои сообщения
Вы не можете голосовать в опросах
Вы не можете прикреплять файлы к сообщениям
Вы не можете скачивать файлы