Дон Сину / Don Seenu (Гопичанд Малинени / Gopichand Malineni) [2010, Индия, Комедийный боевик, НDRip] MVO (Red Media)

Ответить на тему
 
Автор Сообщение

user ®

Стаж: 12 лет

Сообщений: 15092

Пост Пост: #1 от 19-Июн-2014 01:40

[Цитировать]

Дон Сину / Don Seenu
-Страна: Индия
Жанр: Комедийный боевик
Год выпуска: 2010
Продолжительность: 02:46:48-Перевод: Профессиональный (многоголосый закадровый) - Red Media [Индия ТВ]
Субтитры: Нет--Режиссер: Гопичанд Малинени / Gopichand Malineni-В ролях: Рави Теджа, Шрия Саран, Шри Хари, Анджана Сукхани, Саяджи Шинде, Махеш Манджрекар-Описание: О чем вы мечтали в детстве? Ваши мечты сбылись? А вы хотите, чтобы они сбылись? У каждого свои мечты и их может быть много. Но у Сину (Рави Теджа) она всего лишь одна - стать Доном, таким как Амитабх Баччан в фильме «Дон». Вырастая, мы часто забываем свои мечты, но только не Сину. Он упорно идет к своей цели - стать Доном №1 (желательно, в масштабе планеты). Благодаря своей природной предприимчивости и, чего уж скрывать, удачному стечению обстоятельств, он получил доступ к «сливкам» преступного мира Хайдарабада. А в городе правят два бандита - Мачираджу (Саяджи Шинде) и Нарсинг (Шри Хари) - непримиримые соперники. Сину опять повезло, и он вступает в банду Мачираджу, встреть он первым Нарсинга, эта история бы тут же закончилась ввиду переселения на небеса главного героя. Мачираджу поручает Сину отправиться в Германию, влюбиться в сестру Нарсинга и добиться взаимности, тем самым расстроив ее свадьбу с сыном супер Дона Мукеша Дуггала (Махеш Манджрекар), за поддержку которого дерутся Мачираджу и Нарсинг. Сину выполняет задание, завоевывает сердце Дипти (Шрия Саран). А дальше в этой истории начинаются сплошные прямые, перпендикулярные и зигзагообразные повороты, только успевай за всем следить (с) ssshahi-- | --Качество видео: HDRip
Формат видео: AVI-Видео: 672x288 (2.33:1), 24.000 fps, XviD build 50 ~1113 kbps avg, 0.24 bit/pixel
Аудио: 48 kHz, MPEG Layer 3, 2 ch, ~128.00 kbps-Сэмпл / Sample
-
Рип, сведение звука: soso4eg
Доп. информация: на промежутке времени 00:52:00 - 00:53:00 незначительные дефекты звука - так вещал канал.-- -
-
Скриншот с названием:
-
Скриншоты:
-
MediaInfo:
Общее
Полное имя : C:\INDIYA\Don.Sinu.2010.HDRip.XviD-soso4eg.avi
Формат : AVI
Формат/Информация : Audio Video Interleave
Размер файла : 1,46 Гбайт
Продолжительность : 2 ч. 46 м.
Общий поток : 1251 Кбит/сек
Название фильма : Don.Sinu.2010.HDRip.XviD-soso4eg
Режиссёр : soso4eg
Программа кодирования : VirtualDubMod 1.5.10.3 | www.virtualdub-fr.org || (build 2550/release)
Правообладатель : специально для BitTorrent трекер *** (ex torrents.ru)
Примечание : пер. Red Media
Видео
Идентификатор : 0
Формат : MPEG-4 Visual
Профиль формата : Advanced Simple@L5
Параметр BVOP формата : 1
Параметр QPel формата : Нет
Параметр GMC формата : Без точки перехода
Параметр матрицы формата : Default (H.263)
Идентификатор кодека : XVID
Идентификатор кодека/Подсказка : XviD
Продолжительность : 2 ч. 46 м.
Битрейт : 1114 Кбит/сек
Ширина : 672 пикселя
Высота : 288 пикселей
Соотношение сторон : 2,35:1
Частота кадров : 24,000 кадра/сек
Цветовое пространство : YUV
Субдискретизация насыщенности : 4:2:0
Битовая глубина : 8 бит
Тип развёртки : Прогрессивная
Метод сжатия : С потерями
Бит/(Пиксели*Кадры) : 0.240
Размер потока : 1,30 Гбайт (89%)
Библиотека кодирования : XviD 1.2.1 (UTC 2008-12-04)
Аудио
Идентификатор : 1
Формат : MPEG Audio
Версия формата : Version 1
Профиль формата : Layer 3
Режим : Joint stereo
Расширение режима : MS Stereo
Идентификатор кодека : 55
Идентификатор кодека/Подсказка : MP3
Продолжительность : 2 ч. 46 м.
Вид битрейта : Постоянный
Битрейт : 128 Кбит/сек
Каналы : 2 канала
Частота : 48,0 КГц
Метод сжатия : С потерями
Размер потока : 153 Мбайт (10%)
Выравнивание : Соединение по промежуткам
Продолжительность промежутка : 42 мс. (1,00 видеокадр)
Время предзагрузки промежутка : 504 мс.

-
-
Скачать

Скачать торрент! Дон Сину / Don Seenu (Гопичанд Малинени / Gopichand Malineni) [2010, Индия, Комедийный боевик, НDRip] MVO (Red Media)

Как скачивать? · Что такое торрент? · Рейтинг и ограничения

Сайт не распространяет и не хранит электронные версии произведений, а лишь предоставляет доступ к создаваемому пользователями каталогу ссылок на торрент-файлы, которые содержат только списки хеш-сумм

[Профиль] [ЛС]
Показать сообщения:    
Ответить на тему

Текущее время: Сегодня 16:33

Часовой пояс: GMT + 4



Вы не можете начинать темы
Вы не можете отвечать на сообщения
Вы не можете редактировать свои сообщения
Вы не можете удалять свои сообщения
Вы не можете голосовать в опросах
Вы не можете прикреплять файлы к сообщениям
Вы не можете скачивать файлы