Повитуха / Die Hebamme (Ханну Салонен / Hannu Salonen) [2014, Германия, Австрия, Чехия, драма, HDRip] VO (R.A.I.M)

Ответить на тему
 
Автор Сообщение

user ®

Стаж: 7 лет 7 месяцев

Сообщений: 20008

Пост Пост: #1 от 18-Июн-2014 10:50

[Цитировать]

Повитуха / Die Hebamme
Страна: Германия, Австрия, Чехия
Жанр: драма
Год выпуска: 2014
Продолжительность: 01:54:51
Перевод: Одноголосый закадровый R.A.I.M по субтитрам Карина Шестерина
Cубтитры: нет
Оригинальная аудиодорожка: нет
Режиссер: Ханну Салонен / Hannu Salonen
В ролях: Бенедикт Блашкович, Владимир Бурлаков, Себастьян Фриц, Аксель Мильберг, Йоханнес Нуссбаум, Андреас Пичман, Лиза Поттхофф
Описание: У Гесы с детства лишь одна цель: однажды она станет такой же хорошей повитухой, как и ее мать. Ее ранняя смерть заставляет девушку перебраться в «родильный дом» Марбурга. Именно там, в нечеловеческих условиях, уважаемый профессор Килиан обучает искусству повитух. Его насильственные методы быстро вызывают в Гесе дух сопротивления. В то же время она все больше проявляет симпатию к профессору анатомии, доктору Клеменсу Хойзеру. Загадочная серия самоубийств держит город в напряжении.
Доп. информация:

Сэмпл: http://multi-up.com/980938
Качество видео: HDRip
Формат видео: AVI
Видео: 720x400 (1.80:1), 25 fps, XviD MPEG-4 ~1550 kbps avg, 0.22 bit/pixel
Аудио: 48 kHz, AC3 Dolby Digital, 2/0 (L,R) ch, ~192 kbps
MediaInfo
General
Complete name : D:\Povituha.2014.HDRip.avi
Format : AVI
Format/Info : Audio Video Interleave
File size : 1.41 GiB
Duration : 1h 54mn
Overall bit rate : 1 753 Kbps
Writing application : VirtualDubMod 1.5.10.2 (build 2542/release)
Writing library : VirtualDubMod build 2542/release
Video
ID : 0
Format : MPEG-4 Visual
Format profile : Advanced Simple@L5
Format settings, BVOP : Yes
Format settings, QPel : No
Format settings, GMC : No warppoints
Format settings, Matrix : Default (H.263)
Codec ID : XVID
Codec ID/Hint : XviD
Duration : 1h 54mn
Bit rate : 1 551 Kbps
Width : 720 pixels
Height : 400 pixels
Display aspect ratio : 16:9
Frame rate : 25.000 fps
Color space : YUV
Chroma subsampling : 4:2:0
Bit depth : 8 bits
Scan type : Progressive
Compression mode : Lossy
Bits/(Pixel*Frame) : 0.215
Stream size : 1.24 GiB (88%)
Writing library : XviD 1.2.1 (UTC 2008-12-04)
Audio
ID : 1
Format : AC-3
Format/Info : Audio Coding 3
Mode extension : CM (complete main)
Format settings, Endianness : Big
Codec ID : 2000
Duration : 1h 54mn
Bit rate mode : Constant
Bit rate : 192 Kbps
Channel count : 2 channels
Channel positions : Front: L R
Sampling rate : 48.0 KHz
Bit depth : 16 bits
Compression mode : Lossy
Stream size : 158 MiB (11%)
Alignment : Split accross interleaves
Interleave, duration : 40 ms (1.00 video frame)
Interleave, preload duration : 500 ms
Скриншот c названием фильма Скриншоты
Скачать

Скачать торрент!

Как скачивать? · Что такое торрент? · Рейтинг и ограничения

Сайт не распространяет и не хранит электронные версии произведений, а лишь предоставляет доступ к создаваемому пользователями каталогу ссылок на торрент-файлы, которые содержат только списки хеш-сумм

[Профиль] [ЛС]
Показать сообщения:    
Ответить на тему

Текущее время: Сегодня 06:28

Часовой пояс: GMT + 4



Вы не можете начинать темы
Вы не можете отвечать на сообщения
Вы не можете редактировать свои сообщения
Вы не можете удалять свои сообщения
Вы не можете голосовать в опросах
Вы не можете прикреплять файлы к сообщениям
Вы не можете скачивать файлы