Афро Танака / Afuro Tanaka (Дайго Матсуи / Daigo Matsui) [2012, Япония, комедия, HDTVRip] VO (mi24)

Ответить на тему
 
Автор Сообщение

user ®

Стаж: 11 лет

Сообщений: 15151

Пост Пост: #1 от 17-Июн-2014 23:05

[Цитировать]

Афро Танака / Afuro Tanaka
Страна: Япония
Студия: Dub, Happinet, Nippon Shuppan Hanbai (Nippan) K.K.
Жанр: комедия
Год выпуска: 2012
Продолжительность: 01:53:46
Перевод: Одноголосый закадровый mi24
Cубтитры: нет
Оригинальная аудиодорожка: нет
Режиссер: Дайго Матсуи / Daigo Matsui
В ролях: Шота Матсуда, Нозоми Сасаки, Атсуши Тсутсумишита, Кей Танака, Канаме Эндо
Описание: Сюжет фильма основан на манге Норицуке Масахару "Афро Танака". Хироши Танака двадцатичетырехлетний парень с естественными вьющимися волосами, но прическа его выглядит как у афро-американцев в семидесятых годах. Хироши переезжает в Токио и много работает там. И хотя ему уже двадцать четыре года, у него еще ни разу не было девушки. В один прекрасный день, школьный друг сообщает ему, что собирается жениться. Парень помнит об обещании, которое они с друзьями дали друг другу. Желание Хироши найти себе подругу стало еще больше. Тем более, в соседнюю квартиру въезжает красивая женщина по имени Айя Като и парень безумно влюбляется в нее.
II Сэмпл II IMDB II
Качество видео: HDTVRip
Формат видео: AVI
Видео: Xvid 720x384 (16:9) 23.976fps Bit rate 1628Kbps b/p 0.246
Аудио: AC3 48.0KHz 2ch 192 Kbps rus vo
MediaInfo
Общее
Полное имя : E:\torrent\Afro Tanaka.2012.HDTVRip.avi
Формат : AVI
Формат/Информация : Audio Video Interleave
Размер файла : 1,45 Гбайт
Продолжительность : 1 ч. 53 м.
Общий поток : 1829 Кбит/сек
Библиотека кодирования : VirtualDub build 32842/release
Видео
Идентификатор : 0
Формат : MPEG-4 Visual
Профиль формата : Advanced Simple@L5
Параметр BVOP формата : 2
Параметр QPel формата : Нет
Параметр GMC формата : Без точки перехода
Параметр матрицы формата : Default (H.263)
Идентификатор кодека : XVID
Идентификатор кодека/Подсказка : XviD
Продолжительность : 1 ч. 53 м.
Битрейт : 1628 Кбит/сек
Ширина : 720 пикселей
Высота : 384 пикселя
Соотношение сторон : 1,85:1
Частота кадров : 23,976 кадра/сек
Цветовое пространство : YUV
Субдискретизация насыщенности : 4:2:0
Битовая глубина : 8 бит
Тип развёртки : Прогрессивная
Метод сжатия : С потерями
Бит/(Пиксели*Кадры) : 0.246
Размер потока : 1,29 Гбайт (89%)
Библиотека кодирования : XviD 65
Аудио
Идентификатор : 1
Формат : AC-3
Формат/Информация : Audio Coding 3
Расширение режима : CM (complete main)
Параметр Endianness формата : Big
Идентификатор кодека : 2000
Продолжительность : 1 ч. 53 м.
Вид битрейта : Постоянный
Битрейт : 192 Кбит/сек
Каналы : 2 канала
Расположение каналов : Front: L R
Частота : 48,0 КГц
Битовая глубина : 16 бит
Метод сжатия : С потерями
Размер потока : 156 Мбайт (10%)
Выравнивание : Соединение по промежуткам
Продолжительность промежутка : 42 мс. (1,00 видеокадр)
Время предзагрузки промежутка : 512 мс.
Скриншот c названием фильма Скриншоты
Скачать

Скачать торрент! Афро Танака / Afuro Tanaka (Дайго Матсуи / Daigo Matsui) [2012, Япония, комедия, HDTVRip] VO (mi24)

Как скачивать? · Что такое торрент? · Рейтинг и ограничения

Сайт не распространяет и не хранит электронные версии произведений, а лишь предоставляет доступ к создаваемому пользователями каталогу ссылок на торрент-файлы, которые содержат только списки хеш-сумм

[Профиль] [ЛС]
Показать сообщения:    
Ответить на тему

Текущее время: Сегодня 04:42

Часовой пояс: GMT + 4



Вы не можете начинать темы
Вы не можете отвечать на сообщения
Вы не можете редактировать свои сообщения
Вы не можете удалять свои сообщения
Вы не можете голосовать в опросах
Вы не можете прикреплять файлы к сообщениям
Вы не можете скачивать файлы