Домик у моря / Дом у озера / Иль Маре / Il Mare / Siworae (Ли Хён Сын / Lee Hyun-Seung) [2000, Южная Корея, фэнтези, драма, мелодрама, HDRip] VO [Синта Рурони]

Ответить на тему
 
Автор Сообщение

user ®

Стаж: 11 лет

Сообщений: 15151

Пост Пост: #1 от 17-Июн-2014 19:55

[Цитировать]

Домик у моря / Дом у озера / Иль Маре / Il Mare / Siworae- -Страна: Южная Корея
Жанр: фэнтези, драма, мелодрама
Год выпуска: 2000
Продолжительность: 01:36:17-Перевод: Одноголосый закадровый [Синта Рурони]-Cубтитры: нет
Оригинальная аудиодорожка: нет
Режиссер: Ли Хён Сын / Lee Hyun-Seung
В ролях: Ли Чжон Чжэ, Джианна Юн, Му-сан Ким, Сюн-Ен Джо, Юн-чжэ Мин, Чхве Чжун Ён
Описание: Иль Маре" - название домика у моря, где два романтика живут в разное время.
В 1997 году Сон Хён получает странное письмо от Ын Чжу, в котором сказано, что она живет через два года вперёд, в будущем.
Так начинается необычная история.
Релиз от -
Качество видео: HDRip
Формат видео: AVI
Видео: MPEG-4 Visual at 1717 Кбит/сек; 704 x 400 (1.760) at 23.976 fps
Аудио: AC-3 at 448 Кбит/сек; 6 каналов, 48,0 КГц
Автор -
MediaInfo
Общее
Полное имя : D:\Фильмы\Азиатские\Дом у озера\Il Mare.2000.HDRip.XviD.1400MB. rip dy [Assassin's Creed].avi
Формат : AVI
Формат/Информация : Audio Video Interleave
Размер файла : 1,46 Гбайт
Продолжительность : 1 ч. 36 м.
Общий поток : 2174 Кбит/сек
Программа кодирования : VirtualDubMod 1.5.10.3 | www.virtualdub-fr.org || (build 2550/release)
Библиотека кодирования : VirtualDubMod build 2550/release
Видео
Идентификатор : 0
Формат : MPEG-4 Visual
Профиль формата : Advanced Simple@L5
Параметр BVOP формата : 1
Параметр QPel формата : Нет
Параметр GMC формата : Без точки перехода
Параметр матрицы формата : Default (MPEG)
Идентификатор кодека : XVID
Идентификатор кодека/Подсказка : XviD
Продолжительность : 1 ч. 36 м.
Битрейт : 1717 Кбит/сек
Ширина : 704 пикселя
Высота : 400 пикселей
Соотношение сторон : 16:9
Частота кадров : 23,976 кадра/сек
Цветовое пространство : YUV
Субдискретизация насыщенности : 4:2:0
Битовая глубина : 8 бит
Тип развёртки : Прогрессивная
Метод сжатия : С потерями
Бит/(Пиксели*Кадры) : 0.254
Размер потока : 1,15 Гбайт (79%)
Библиотека кодирования : XviD 1.2.1 (UTC 2008-12-04)
Аудио
Идентификатор : 1
Формат : AC-3
Формат/Информация : Audio Coding 3
Расширение режима : CM (complete main)
Параметр Endianness формата : Big
Идентификатор кодека : 2000
Продолжительность : 1 ч. 36 м.
Вид битрейта : Постоянный
Битрейт : 448 Кбит/сек
Каналы : 6 каналов
Расположение каналов : Front: L C R, Side: L R, LFE
Частота : 48,0 КГц
Битовая глубина : 16 бит
Метод сжатия : С потерями
Размер потока : 309 Мбайт (21%)
Выравнивание : Разделение по промежуткам
Продолжительность промежутка : 42 мс. (1,00 видеокадр)
Время предзагрузки промежутка : 500 мс.
Скриншот c названием фильма Скриншоты
Скачать

Скачать торрент! Домик у моря / Дом у озера / Иль Маре / Il Mare / Siworae (Ли Хён Сын / Lee Hyun-Seung) [2000, Южная Корея, фэнтези, драма, мелодрама, HDRip] VO [Синта Рурони]

Как скачивать? · Что такое торрент? · Рейтинг и ограничения

Сайт не распространяет и не хранит электронные версии произведений, а лишь предоставляет доступ к создаваемому пользователями каталогу ссылок на торрент-файлы, которые содержат только списки хеш-сумм

[Профиль] [ЛС]
Показать сообщения:    
Ответить на тему

Текущее время: Сегодня 16:11

Часовой пояс: GMT + 4



Вы не можете начинать темы
Вы не можете отвечать на сообщения
Вы не можете редактировать свои сообщения
Вы не можете удалять свои сообщения
Вы не можете голосовать в опросах
Вы не можете прикреплять файлы к сообщениям
Вы не можете скачивать файлы