Гатчамен / Gatchaman (Тоя Сато / Toya Sato) [2013, Япония, Китай, фантастика, HDRip] DVO (Айчик & den904)

Ответить на тему
 
Автор Сообщение

user ®

Стаж: 11 лет

Сообщений: 15151

Пост Пост: #1 от 17-Июн-2014 19:55

[Цитировать]

Гатчамен / Gatchaman
Страна: Япония, Китай
Жанр: фантастика
Год выпуска: 2013
Продолжительность: 01:49:47
Перевод: Любительский (двухголосый закадровый) [Айчик & den904]
Cубтитры: нет
Режиссер: Тоя Сато / Toya Sato
В ролях: Тори Мацузака, Рёхэй Судзуки, Коу Аяно, Аямэ Горики, Тацуоми Хамада, Ерико Хатсуне, Горо Кишитани, Кен Мицуйси, Шидо Накамура, Грегори Пекарь
Описание: Благодаря совершеннейшим технологиям и бесстрашным солдатам, могущественная организация пользуясь методами террора начинает борьбу против всего мира. Ни одно государство не может им противостоять – и вот уже половина Земли находится под их контролем. Чтобы остановить их, доктор Намбу решает собрать специальный отряд «Гатчамен», в состав которого войдут пять супербойцов. Теперь вся надежда только на этих храбрых ниндзя...
Сэмпл: https://yadi.sk/d/JuSQAROiThRs8
Качество видео: HDRip
Формат видео: AVI
Видео: MPEG4, DivX 5, 720x304 (2.35:1), 23.976 fps, 1 540 Kbps (0.294 bit/pixel)
Аудио: AC-3, 48.0 KHz, 2 ch, 192 Kbps, CBR
MediaInfo
Общее
Полное имя : K:\Gacchaman.HDRip.L2.1400mb.avi
Формат : AVI
Формат/Информация : Audio Video Interleave
Размер файла : 1,37 Гбайт
Продолжительность : 1 ч. 52 м.
Общий поток : 1742 Кбит/сек
Программа кодирования : VirtualDubMod 1.5.10.3 | www.virtualdub-fr.org || (build 2550/release)
Библиотека кодирования : VirtualDubMod build 2550/release
Видео
Идентификатор : 0
Формат : MPEG-4 Visual
Профиль формата : Advanced Simple@L5
Параметр BVOP формата : 1
Параметр QPel формата : Нет
Параметр GMC формата : Без точки перехода
Параметр матрицы формата : Default (MPEG)
Идентификатор кодека : DX50
Идентификатор кодека/Подсказка : DivX 5
Продолжительность : 1 ч. 52 м.
Битрейт : 1540 Кбит/сек
Ширина : 720 пикселей
Высота : 304 пикселя
Соотношение сторон : 2,35:1
Частота кадров : 23,976 кадра/сек
Цветовое пространство : YUV
Субдискретизация насыщенности : 4:2:0
Битовая глубина : 8 бит
Тип развёртки : Прогрессивная
Метод сжатия : С потерями
Бит/(Пиксели*Кадры) : 0.294
Размер потока : 1,21 Гбайт (88%)
Библиотека кодирования : XviD 1.2.1 (UTC 2008-12-04)
Аудио
Идентификатор : 1
Формат : AC-3
Формат/Информация : Audio Coding 3
Расширение режима : CM (complete main)
Параметр Endianness формата : Big
Идентификатор кодека : 2000
Продолжительность : 1 ч. 52 м.
Вид битрейта : Постоянный
Битрейт : 192 Кбит/сек
Каналы : 2 канала
Расположение каналов : Front: L R
Частота : 48,0 КГц
Битовая глубина : 16 бит
Метод сжатия : С потерями
Размер потока : 155 Мбайт (11%)
Выравнивание : Разделение по промежуткам
Продолжительность промежутка : 42 мс. (1,00 видеокадр)
Время предзагрузки промежутка : 500 мс.
Скриншоты
Скачать

Скачать торрент! Гатчамен / Gatchaman (Тоя Сато / Toya Sato) [2013, Япония, Китай, фантастика, HDRip] DVO (Айчик & den904)

Как скачивать? · Что такое торрент? · Рейтинг и ограничения

Сайт не распространяет и не хранит электронные версии произведений, а лишь предоставляет доступ к создаваемому пользователями каталогу ссылок на торрент-файлы, которые содержат только списки хеш-сумм

[Профиль] [ЛС]
Показать сообщения:    
Ответить на тему

Текущее время: Сегодня 09:48

Часовой пояс: GMT + 4



Вы не можете начинать темы
Вы не можете отвечать на сообщения
Вы не можете редактировать свои сообщения
Вы не можете удалять свои сообщения
Вы не можете голосовать в опросах
Вы не можете прикреплять файлы к сообщениям
Вы не можете скачивать файлы