Танцуй отсюда! / Cuban Fury (Джеймс Гриффитс / James Griffiths) [2014 г., Великобритания, комедия, BDRip] Dub

Ответить на тему
 
Автор Сообщение

user ®

Стаж: 7 лет 7 месяцев

Сообщений: 20008

Пост Пост: #1 от 17-Июн-2014 19:55

[Цитировать]

--Танцуй отсюда! / Cuban Fury«Реальные мужики зажигают»-- Страна: Великобритания
Жанр: комедия
Год выхода: 2014
Продолжительность: 01:37:53
Перевод: профессиональный (полное дублирование)
Субтитры: нет
Оригинальная аудиодорожка: отсутствует
Режиссер: Джеймс Гриффитс
В ролях: Ник Фрост, Рашида Джонс, Крис О’Дауд, Иэн МакШейн, Бен Рэдклифф, Брэндон Робинсон, Луис Кайриаку, Киран Гаффни, Стив Орам
О фильме: Чтобы завоевать сердце прекрасной начальницы, одному в меру упитанному мужчине предстоит растрясти свои таланты в соревновании на самый зажигательный танец. Однако у него есть соперник, который не постесняется опуститься до очень грязных приемов.

Релиз от -
Автор: Gellard
Сэмпл: скачать
Качество: BDRip (источник: HDTracker / Blu-Ray Remux / 1080p)
Формат: AVI
Видео: 720x304 (2.37:1), 23.976 fps, XviD build 65 ~1730 kbps avg, 0.33 bit/pixel
Аудио: 48 kHz, AC3 Dolby Digital, 3/2 (L,C,R,l,r) + LFE ch, 384.00 kbps avg-
-
Скриншоты
Скриншот с названием
MediaInfo
General
Complete name                            : Tancuj.otsyuda!.2014.RUS.BDRip.XviD.AC3.-HQCLUB.avi
Format                                   : AVI
Format/Info                              : Audio Video Interleave
File size                                : 1.45 GiB
Duration                                 : 1h 37mn
Overall bit rate                         : 2 124 Kbps
Movie name                               : Танцуй отсюда! / Cuban Fury (2014) BDRip
Director                                 : Gellard
Genre                                    : комедия
Writing application                      : VirtualDubMod 1.5.10.2 (build 2542/release)
Copyright                                : HQCLUB
Comment                                  : 17.06.2014
Video
ID                                       : 0
Format                                   : MPEG-4 Visual
Format profile                           : Advanced Simple@L5
Format settings, BVOP                    : 1
Format settings, QPel                    : No
Format settings, GMC                     : No warppoints
Format settings, Matrix                  : Custom
Codec ID                                 : XVID
Codec ID/Hint                            : XviD
Duration                                 : 1h 37mn
Bit rate                                 : 1 730 Kbps
Width                                    : 720 pixels
Height                                   : 304 pixels
Display aspect ratio                     : 2.35:1
Frame rate                               : 23.976 fps
Color space                              : YUV
Chroma subsampling                       : 4:2:0
Bit depth                                : 8 bits
Scan type                                : Progressive
Compression mode                         : Lossy
Bits/(Pixel*Frame)                       : 0.330
Stream size                              : 1.18 GiB (81%)
Writing library                          : XviD 65
Audio
ID                                       : 1
Format                                   : AC-3
Format/Info                              : Audio Coding 3
Mode extension                           : CM (complete main)
Format settings, Endianness              : Big
Codec ID                                 : 2000
Duration                                 : 1h 37mn
Bit rate mode                            : Constant
Bit rate                                 : 384 Kbps
Channel count                            : 6 channels
Channel positions                        : Front: L C R, Side: L R, LFE
Sampling rate                            : 48.0 KHz
Bit depth                                : 16 bits
Compression mode                         : Lossy
Stream size                              : 269 MiB (18%)
Alignment                                : Split accross interleaves
Interleave, duration                     : 42 ms (1.00 video frame)
Interleave, preload duration             : 500 ms
Скачать

Скачать торрент!

Как скачивать? · Что такое торрент? · Рейтинг и ограничения

Сайт не распространяет и не хранит электронные версии произведений, а лишь предоставляет доступ к создаваемому пользователями каталогу ссылок на торрент-файлы, которые содержат только списки хеш-сумм

[Профиль] [ЛС]
Показать сообщения:    
Ответить на тему

Текущее время: Сегодня 03:52

Часовой пояс: GMT + 4



Вы не можете начинать темы
Вы не можете отвечать на сообщения
Вы не можете редактировать свои сообщения
Вы не можете удалять свои сообщения
Вы не можете голосовать в опросах
Вы не можете прикреплять файлы к сообщениям
Вы не можете скачивать файлы