Психометрия / Psychometry / The Gifted Hands / Sa-i-ko-mai-teu-ri (Квон Хо Ён / Kwon Ho Young) [2013, Южная Корея, триллер, детектив, драма, мистика, HDRip] MVO (STEPonee)

Ответить на тему
 
Автор Сообщение

user ®

Стаж: 11 лет

Сообщений: 15151

Пост Пост: #1 от 17-Июн-2014 05:00

[Цитировать]

Психометрия / Psychometry / The Gifted Hands / Sa-i-ko-mai-teu-ri
Страна: Южная Корея
Жанр: триллер, детектив, драма, мистика
Год выпуска: 2013
Продолжительность: 01:48:11
Перевод: Любительский (многоголосый закадровый) STEPonee
Cубтитры: нет
Режиссер: Квон Хо Ён / Kwon Ho Young
В ролях: Ким Кан У, Ким Бом, Есом, Пак Сон-Ун
Описание: Ян Чун-Дон уже в течение трех лет служит в полиции. На территории его полицейского участка происходит похищение и убийство маленькой девочки. Расследуя данное преступление, детектив Ян наталкивается на стену с таинственными рисунками граффити, которые фактически изображают место преступления со всеми подробностями. Под подозрение попадает художник Ким Джун, нарисовавший эту картину. Только арестовав Ким Джуна, Ян Чун-Дон узнает, что у парня есть специальные способности. Он — «психометрик», способный видеть прошлое, трогая кого-то или что-то своей правой рукой. Парень одинок, так как страдает из-за своих способностей, причиняющих ему немало боли. Тем временем, детектив собирается использовать способность Кима Джуна для расследования преступления и поиска настоящего преступника.
Сэмпл: http://multi-up.com/980699
Качество видео: HDRip (Psychometry.2013.720p.HDRip.H264-Mbaro)
Формат видео: AVI
Видео: XviD, 826 Kbps, 640 х 272 pixels, 23.976 fps
Аудио: MP3, 128 Kbps, 2 channels, 48.0 KHz

MediaInfo
General
Complete name : D:\Psychometry.2013.HDRip.745Mb.avi
Format : AVI
Format/Info : Audio Video Interleave
File size : 745 MiB
Duration : 1h 48mn
Overall bit rate : 963 Kbps
Writing application : VirtualDubMod 1.5.10.3 | www.virtualdub-fr.org || (build 2550/release)
Writing library : VirtualDubMod build 2550/release
Video
ID : 0
Format : MPEG-4 Visual
Format profile : Advanced Simple@L5
Format settings, BVOP : Yes
Format settings, QPel : No
Format settings, GMC : No warppoints
Format settings, Matrix : Custom
Codec ID : XVID
Codec ID/Hint : XviD
Duration : 1h 48mn
Bit rate : 826 Kbps
Width : 640 pixels
Height : 272 pixels
Display aspect ratio : 2.35:1
Frame rate : 23.976 fps
Color space : YUV
Chroma subsampling : 4:2:0
Bit depth : 8 bits
Scan type : Progressive
Compression mode : Lossy
Bits/(Pixel*Frame) : 0.198
Stream size : 639 MiB (86%)
Writing library : XviD 73
Audio
ID : 1
Format : MPEG Audio
Format version : Version 1
Format profile : Layer 3
Codec ID : 55
Codec ID/Hint : MP3
Duration : 1h 48mn
Bit rate mode : Constant
Bit rate : 128 Kbps
Channel(s) : 2 channels
Sampling rate : 48.0 KHz
Compression mode : Lossy
Stream size : 99.1 MiB (13%)
Alignment : Aligned on interleaves
Interleave, duration : 42 ms (1.00 video frame)
Interleave, preload duration : 504 ms
Writing library : LAME3.99r
Encoding settings : -m s -V 4 -q 2 -lowpass 17 -b 128
Скриншот c названием фильма Скриншоты
Скачать

Скачать торрент! Психометрия / Psychometry / The Gifted Hands / Sa-i-ko-mai-teu-ri (Квон Хо Ён / Kwon Ho Young) [2013, Южная Корея, триллер, детектив, драма, мистика, HDRip] MVO (STEPonee)

Как скачивать? · Что такое торрент? · Рейтинг и ограничения

Сайт не распространяет и не хранит электронные версии произведений, а лишь предоставляет доступ к создаваемому пользователями каталогу ссылок на торрент-файлы, которые содержат только списки хеш-сумм

[Профиль] [ЛС]
Показать сообщения:    
Ответить на тему

Текущее время: Сегодня 22:49

Часовой пояс: GMT + 4



Вы не можете начинать темы
Вы не можете отвечать на сообщения
Вы не можете редактировать свои сообщения
Вы не можете удалять свои сообщения
Вы не можете голосовать в опросах
Вы не можете прикреплять файлы к сообщениям
Вы не можете скачивать файлы