Под прикрытием / Renegades (Джек Шолдер / Jack Sholder) [1989, США, боевик, триллер, криминал, HDTVRip 720p] DVO (Екатеринбург Арт) + AVO (Юрий Живов) + Sub Eng + Original Eng

Ответить на тему
 
Автор Сообщение

user ®

Стаж: 7 лет 7 месяцев

Сообщений: 20008

Пост Пост: #1 от 16-Июн-2014 23:50

[Цитировать]

Под прикрытием / Renegades
Страна: США
Жанр: боевик, триллер, криминал
Год выпуска: 1989
Продолжительность: 01:45:25
Перевод 1: Профессиональный (двухголосый закадровый) Екатеринбург Арт
Перевод 2: Авторский (одноголосый закадровый) Юрий Живов
Cубтитры: английские
Оригинальная аудиодорожка: английский
Режиссер: Джек Шолдер / Jack Sholder
В ролях: Кифер Сазерленд, Лу Даймонд Филлипс, Джейми Герц, Роберт Неппер, Билл Смитрович, Кларк Джонсон, Питер МакНейл, Флойд «Ред Кроу» Уэстермен, Джозеф Гриффин, Джон Ди Бенедетто...
Описание: Полицейский «под прикрытием» Бастер МакХенри, внедрившись в банду похитителей бриллиантов, сам оказался вне закона. Ему пришлось принять участие в грабеже, приведшему к убийствам, во время которого было похищено бесценное индейское копье племени лакота, а Бастера тяжело ранил главарь банды Марино.
Молодой индеец Хэнк Сторм, который жаждет вернуть святыню своего племени и отомстить за гибель брата, спасает Бастера. Бастер и Хэнк не доверяют друг другу, но оба разыскивают одного и того же человека — того, кто убил брата Хэнка и ранил Бастера.
И, чтобы добраться до общей цели и покарать преступника, им приходится объединить силы против гангстеров и коррумпированных полицейских…
Доп. информация: За оцифровку VHS от "Екатеринбург Арт" спасибо Fikaloid, за перевод Живова Crocodiled.
Сэмпл: http://multi-up.com/980614
Тип релиза: HDTVRip 720p
Контейнер: MKV
Видео: 1280x712 (16:9), 23.976 fps, AVC, ~4201 Kbps, 0.192 bits/pixel
Аудио 1: Russian, 48.0 KHz, AC3, 2 ch, 192 Kbps - Екатеринбург Арт
Аудио 2: Russian, 48.0 KHz, AC3, 2 ch, 192 Kbps - Юрий Живов
Аудио 3: English, 48.0 KHz, AC3, 2 ch, 384 Kbps
Формат субтитров: softsub (SRT)

MediaInfo
General
Unique ID : 236284223561486880758822957451619932455 (0xB1C2AFA7CF7F409EAAA2FD0DDF291927)
Complete name : D:\Renegades.mkv
Format : Matroska
Format version : Version 4 / Version 2
File size : 3.73 GiB
Duration : 1h 45mn
Overall bit rate : 5 070 Kbps
Encoded date : UTC 2014-06-16 09:24:55
Writing application : mkvmerge v7.0.0 ('Where We Going') 64bit built on Jun 9 2014 15:16:27
Writing library : libebml v1.3.0 + libmatroska v1.4.1
DURATION : 01:45:25.472000000
NUMBER_OF_FRAMES : 197671
NUMBER_OF_BYTES : 151811328
_STATISTICS_WRITING_APP : mkvmerge v7.0.0 ('Where We Going') 64bit built on Jun 9 2014 15:16:27
_STATISTICS_WRITING_DATE_UTC : 2014-06-16 09:24:55
_STATISTICS_TAGS : BPS DURATION NUMBER_OF_FRAMES NUMBER_OF_BYTES
Video
ID : 1
Format : AVC
Format/Info : Advanced Video Codec
Format profile : High@L4.1
Format settings, CABAC : Yes
Format settings, ReFrames : 7 frames
Codec ID : V_MPEG4/ISO/AVC
Duration : 1h 45mn
Bit rate : 4 201 Kbps
Width : 1 280 pixels
Height : 712 pixels
Display aspect ratio : 16:9
Frame rate mode : Constant
Frame rate : 23.976 fps
Color space : YUV
Chroma subsampling : 4:2:0
Bit depth : 8 bits
Scan type : Progressive
Bits/(Pixel*Frame) : 0.192
Stream size : 3.09 GiB (83%)
Writing library : x264 core 142 r2431 ac76440
Encoding settings : cabac=1 / ref=7 / deblock=1:-3:-3 / analyse=0x3:0x133 / me=umh / subme=9 / psy=1 / psy_rd=1.00:0.15 / mixed_ref=1 / me_range=40 / chroma_me=1 / trellis=2 / 8x8dct=1 / cqm=2 / deadzone=21,11 / fast_pskip=1 / chroma_qp_offset=-3 / threads=3 / lookahead_threads=1 / sliced_threads=0 / nr=0 / decimate=1 / interlaced=0 / bluray_compat=0 / constrained_intra=0 / bframes=5 / b_pyramid=2 / b_adapt=2 / b_bias=0 / direct=3 / weightb=1 / open_gop=0 / weightp=2 / keyint=240 / keyint_min=23 / scenecut=40 / intra_refresh=0 / rc_lookahead=120 / rc=crf / mbtree=1 / crf=19.0 / qcomp=0.60 / qpmin=4 / qpmax=69 / qpstep=4 / vbv_maxrate=62500 / vbv_bufsize=78125 / crf_max=0.0 / nal_hrd=none / filler=0 / ip_ratio=1.40 / aq=1:1.00
Language : English
Default : Yes
Forced : No
Color primaries : BT.709
Transfer characteristics : BT.709
Matrix coefficients : BT.709
DURATION : 01:45:25.444000000
NUMBER_OF_FRAMES : 151620
NUMBER_OF_BYTES : 3399283895
_STATISTICS_WRITING_APP : mkvmerge v7.0.0 ('Where We Going') 64bit built on Jun 9 2014 15:16:27
_STATISTICS_WRITING_DATE_UTC : 2014-06-16 09:24:55
_STATISTICS_TAGS : BPS DURATION NUMBER_OF_FRAMES NUMBER_OF_BYTES
Audio #1
ID : 2
Format : AC-3
Format/Info : Audio Coding 3
Mode extension : CM (complete main)
Format settings, Endianness : Big
Codec ID : A_AC3
Duration : 1h 45mn
Bit rate mode : Constant
Bit rate : 192 Kbps
Channel(s) : 2 channels
Channel positions : Front: L R
Sampling rate : 48.0 KHz
Bit depth : 16 bits
Compression mode : Lossy
Stream size : 145 MiB (4%)
Title : Екатеринбург Арт
Language : Russian
Default : Yes
Forced : No
Audio #2
ID : 3
Format : AC-3
Format/Info : Audio Coding 3
Mode extension : CM (complete main)
Format settings, Endianness : Big
Codec ID : A_AC3
Duration : 1h 45mn
Bit rate mode : Constant
Bit rate : 192 Kbps
Channel(s) : 2 channels
Channel positions : Front: L R
Sampling rate : 48.0 KHz
Bit depth : 16 bits
Compression mode : Lossy
Stream size : 145 MiB (4%)
Title : Юрий Живов
Language : Russian
Default : No
Forced : No
Audio #3
ID : 4
Format : AC-3
Format/Info : Audio Coding 3
Mode extension : CM (complete main)
Format settings, Endianness : Big
Codec ID : A_AC3
Duration : 1h 45mn
Bit rate mode : Constant
Bit rate : 384 Kbps
Channel(s) : 2 channels
Channel positions : Front: L R
Sampling rate : 48.0 KHz
Bit depth : 16 bits
Compression mode : Lossy
Stream size : 290 MiB (8%)
Language : English
Default : No
Forced : No
Text
ID : 5
Format : UTF-8
Codec ID : S_TEXT/UTF8
Codec ID/Info : UTF-8 Plain Text
Language : English
Default : No
Forced : No
Menu
00:00:00.000 : :Chapter 01
00:03:35.067 : :Chapter 02
00:11:06.467 : :Chapter 03
00:19:01.867 : :Chapter 04
00:21:49.867 : :Chapter 05
00:27:01.701 : :Chapter 06
00:36:12.935 : :Chapter 07
00:41:34.435 : :Chapter 08
00:49:17.602 : :Chapter 09
00:57:06.869 : :Chapter 10
01:01:11.603 : :Chapter 11
01:05:26.504 : :Chapter 12
01:13:11.838 : :Chapter 13
01:19:54.739 : :Chapter 14
01:24:40.973 : :Chapter 15
01:30:31.473 : :Chapter 16
01:34:53.374 : :Chapter 17
01:38:58.941 : :Chapter 18
Скриншоты
Скачать

Скачать торрент!

Как скачивать? · Что такое торрент? · Рейтинг и ограничения

Сайт не распространяет и не хранит электронные версии произведений, а лишь предоставляет доступ к создаваемому пользователями каталогу ссылок на торрент-файлы, которые содержат только списки хеш-сумм

[Профиль] [ЛС]
Показать сообщения:    
Ответить на тему

Текущее время: Сегодня 18:10

Часовой пояс: GMT + 4



Вы не можете начинать темы
Вы не можете отвечать на сообщения
Вы не можете редактировать свои сообщения
Вы не можете удалять свои сообщения
Вы не можете голосовать в опросах
Вы не можете прикреплять файлы к сообщениям
Вы не можете скачивать файлы