Этот демон внутри / That Demon Within / Mo jing (Данте Лам / Dante Lam) [2014, Гонконг, Китай, боевик, криминал, BDRip] DVO (DeadSno & den904)

Ответить на тему
 
Автор Сообщение

user ®

Стаж: 13 лет

Сообщений: 15071

Пост Пост: #1 от 16-Июн-2014 14:20

[Цитировать]

Этот демон внутри / That Demon Within / Mo jing
Страна: Гонконг, Китай
Жанр: боевик, криминал
Год выпуска: 2014
Продолжительность: 01:51:16
Перевод: Любительский (двухголосый закадровый) DeadSno & den904
Cубтитры: нет
Режиссер: Данте Лам / Dante Lam
В ролях: Дэниэл Ву, Ник Чун, Лью Кай Чи, Ка Ва Лам, Энди Он, Квок-Лун Ли, Стефен Ау, Куан-Чун Чи, Сингх Хартихан Битто
Описание: С нашим героем, офицером полиции, случилась неординарная ситуация и выполняя свой долг он спас жизнь одному криминальному лидеру. Только угрызения совести не давали ему покоя и он стал одержимым уничтожить группировку того бандита, которого он спас...
Сэмпл: http://multi-up.com/980565
Качество видео: BDRip
Формат видео: AVI
Видео: XviD 720x304 2,35:1 24,000 кадра/сек 1662 Кбит/сек
Аудио: AC3 2 ch 48,0 КГц 192 Кбит/с Front:L R
MediaInfo
Общее
Полное имя : C:\Users\Brisk\Desktop\ТоррентЫ\That.Demon.Within.L2.1500mb.avi
Формат : AVI
Формат/Информация : Audio Video Interleave
Размер файла : 1,45 Гбайт
Продолжительность : 1 ч. 51 м.
Общий поток : 1864 Кбит/сек
Программа кодирования : VirtualDubModRus 1.5.10.2 (build 2542/release)
Библиотека кодирования : VirtualDubMod build 2542/release
Видео
Идентификатор : 0
Формат : MPEG-4 Visual
Профиль формата : Advanced Simple@L1
Параметр BVOP формата : Нет
Параметр QPel формата : Нет
Параметр GMC формата : Без точки перехода
Параметр матрицы формата : Default (H.263)
Идентификатор кодека : XVID
Идентификатор кодека/Подсказка : XviD
Продолжительность : 1 ч. 51 м.
Битрейт : 1662 Кбит/сек
Ширина : 720 пикселей
Высота : 304 пикселя
Соотношение сторон : 2,35:1
Частота кадров : 24,000 кадра/сек
Цветовое пространство : YUV
Субдискретизация насыщенности : 4:2:0
Битовая глубина : 8 бит
Тип развёртки : Прогрессивная
Метод сжатия : С потерями
Бит/(Пиксели*Кадры) : 0.316
Размер потока : 1,29 Гбайт (89%)
Библиотека кодирования : Lavc55.12.100
Аудио
Идентификатор : 1
Формат : AC-3
Формат/Информация : Audio Coding 3
Расширение режима : CM (complete main)
Параметр Endianness формата : Big
Идентификатор кодека : 2000
Продолжительность : 1 ч. 51 м.
Вид битрейта : Постоянный
Битрейт : 192 Кбит/сек
Каналы : 2 канала
Расположение каналов : Front: L R
Частота : 48,0 КГц
Битовая глубина : 16 бит
Метод сжатия : С потерями
Размер потока : 153 Мбайт (10%)
Выравнивание : Разделение по промежуткам
Продолжительность промежутка : 42 мс. (1,00 видеокадр)
Время предзагрузки промежутка : 500 мс.
Скриншот c названием фильма Скриншоты
Скачать

Скачать торрент! Этот демон внутри / That Demon Within / Mo jing (Данте Лам / Dante Lam) [2014, Гонконг, Китай, боевик, криминал, BDRip] DVO (DeadSno & den904)

Как скачивать? · Что такое торрент? · Рейтинг и ограничения

Сайт не распространяет и не хранит электронные версии произведений, а лишь предоставляет доступ к создаваемому пользователями каталогу ссылок на торрент-файлы, которые содержат только списки хеш-сумм

[Профиль] [ЛС]
Показать сообщения:    
Ответить на тему

Текущее время: Сегодня 11:07

Часовой пояс: GMT + 4



Вы не можете начинать темы
Вы не можете отвечать на сообщения
Вы не можете редактировать свои сообщения
Вы не можете удалять свои сообщения
Вы не можете голосовать в опросах
Вы не можете прикреплять файлы к сообщениям
Вы не можете скачивать файлы