Блондинка в эфире / Walk of Shame (Стивен Брилл / Steven Brill) [2014, США, Комедия, приключения, HDRip-AVC] Dub (line) + Sub (Eng)

Ответить на тему
 
Автор Сообщение

user ®

Стаж: 7 лет 7 месяцев

Сообщений: 20008

Пост Пост: #1 от 16-Июн-2014 14:20

[Цитировать]

Блондинка в эфире / Walk of Shame- Страна: США
Жанр: Комедия, приключения
Год выпуска: 2014
Продолжительность: 01:34:28
Перевод: Профессиональный (дублированный) - line (чистый звук)
Cубтитры: английские
Оригинальная аудиодорожка: нет-Режиссер: Стивен Брилл / Steven Brill
В ролях: Элизабет Бэнкс, Джеймс Марсден, Джиллиан Джейкобс, Сара Райт, Итэн Сапли, Билли Барр, Кен Давитян, Ларри Джиллиард мл., Альфонсо МакОли, Дэвон МакДональд.-Описание: Все начинается с того, что главная героиня Меган решила устроиться на работу телеведущей. Она отправляется на собеседование и решает, что проваливает его. С горя Меган напивается в баре с подружками и просыпается с похмельем непонятно где без ключей и денег, а на телефон ей приходит сообщение, что она принята на работу и через восемь часов у нее эфир. С этого момента наша героиня постоянно попадает в различные неприятности, они окружают ее просто со всех сторон. Она пытается выбраться из неблагополучной части города при этом попадая во множество невероятных приключений, из-за которых ее судьба совершенно меняется.-
-Качество видео: HDRip-AVC (исх. BDRip 1080p)
Формат видео: MKV
Видео: x.264, 1044x436, 1822 kbps, 23.976 fps
Аудио: AC3, 48000 Hz, 384 kbps, 5,1 channels
Субтитры: SRT - английские
Главы: Есть-Скриншоты Резервные скриншоты
-
MediaInfo/log
Format : Matroska
Format version : Version 4 / Version 2
File size : 1.46 GiB
Duration : 1h 34mn
Overall bit rate : 2 208 Kbps
Movie name : Блондинка в эфире / Walk of Shame (2014) HDRip-AVC by RG Torrents.ru
Encoded date : UTC 2014-06-15 21:53:49
Writing application : mkvmerge v7.0.0 ('Where We Going') 32bit built on Jun 9 2014 15:08:34
Writing library : libebml v1.3.0 + libmatroska v1.4.1
DURATION : 01:33:25.499000000
NUMBER_OF_FRAMES : 1885
NUMBER_OF_BYTES : 71103
_STATISTICS_WRITING_APP : mkvmerge v7.0.0 ('Where We Going') 32bit built on Jun 9 2014 15:08:34
_STATISTICS_WRITING_DATE_UTC : 2014-06-15 21:53:49
_STATISTICS_TAGS : BPS DURATION NUMBER_OF_FRAMES NUMBER_OF_BYTES
Attachment : Yes
Video
ID : 1
Format : AVC
Format/Info : Advanced Video Codec
Format profile : High@L4.1
Format settings, CABAC : Yes
Format settings, ReFrames : 12 frames
Codec ID : V_MPEG4/ISO/AVC
Duration : 1h 34mn
Bit rate : 1 822 Kbps
Width : 1 044 pixels
Height : 436 pixels
Display aspect ratio : 2.40:1
Frame rate mode : Constant
Frame rate : 23.976 fps
Color space : YUV
Chroma subsampling : 4:2:0
Bit depth : 8 bits
Scan type : Progressive
Bits/(Pixel*Frame) : 0.167
Stream size : 1.17 GiB (81%)
Title : RG Torrents.ru
Writing library : x264 core 142 r2431 ac76440
Encoding settings : cabac=1 / ref=12 / deblock=1:-2:-1 / analyse=0x3:0x113 / me=umh / subme=10 / psy=1 / psy_rd=1.00:0.00 / mixed_ref=1 / me_range=32 / chroma_me=1 / trellis=2 / 8x8dct=1 / cqm=0 / deadzone=21,11 / fast_pskip=0 / chroma_qp_offset=-2 / threads=6 / lookahead_threads=1 / sliced_threads=0 / nr=0 / decimate=1 / interlaced=0 / bluray_compat=0 / constrained_intra=0 / bframes=10 / b_pyramid=2 / b_adapt=2 / b_bias=0 / direct=3 / weightb=1 / open_gop=0 / weightp=2 / keyint=240 / keyint_min=23 / scenecut=40 / intra_refresh=0 / rc_lookahead=40 / rc=2pass / mbtree=0 / bitrate=1822 / ratetol=1.0 / qcomp=0.60 / qpmin=0 / qpmax=69 / qpstep=4 / cplxblur=20.0 / qblur=0.5 / vbv_maxrate=12000 / vbv_bufsize=15000 / nal_hrd=none / filler=0 / ip_ratio=1.20 / pb_ratio=1.20 / aq=1:1.00
Language : English
Default : Yes
Forced : No
DURATION : 01:34:28.622000000
NUMBER_OF_FRAMES : 135911
NUMBER_OF_BYTES : 1290677052
_STATISTICS_WRITING_APP : mkvmerge v7.0.0 ('Where We Going') 32bit built on Jun 9 2014 15:08:34
_STATISTICS_WRITING_DATE_UTC : 2014-06-15 21:53:49
_STATISTICS_TAGS : BPS DURATION NUMBER_OF_FRAMES NUMBER_OF_BYTES
Audio
ID : 2
Format : AC-3
Format/Info : Audio Coding 3
Mode extension : CM (complete main)
Format settings, Endianness : Big
Codec ID : A_AC3
Duration : 1h 34mn
Bit rate mode : Constant
Bit rate : 384 Kbps
Channel(s) : 6 channels
Channel positions : Front: L C R, Side: L R, LFE
Sampling rate : 48.0 KHz
Bit depth : 16 bits
Compression mode : Lossy
Stream size : 259 MiB (17%)
Language : Russian
Default : Yes
Forced : No
Text
ID : 3
Format : UTF-8
Codec ID : S_TEXT/UTF8
Codec ID/Info : UTF-8 Plain Text
Language : English
Default : No
Forced : No
Menu
00:00:00.000 : en:00:00:00.000
00:02:27.689 : en:00:02:27.689
00:07:23.735 : en:00:07:23.735
00:12:20.531 : en:00:12:20.531
00:17:16.702 : en:00:17:16.702
00:22:08.118 : en:00:22:08.118
00:26:53.737 : en:00:26:53.737
00:32:04.464 : en:00:32:04.464
00:39:18.898 : en:00:39:18.898
00:46:26.409 : en:00:46:26.409
00:51:02.977 : en:00:51:02.977
00:54:24.678 : en:00:54:24.678
00:59:49.211 : en:00:59:49.211
01:05:01.523 : en:01:05:01.523
01:07:40.223 : en:01:07:40.223
01:11:44.634 : en:01:11:44.634
01:15:06.252 : en:01:15:06.252
01:22:58.473 : en:01:22:58.473
01:27:27.701 : en:01:27:27.701
01:29:34.703 : en:01:29:34.703
===================================================
x264 [info]: frame I:1493 Avg QP:17.28 size: 58183x264 [info]: frame P:32192 Avg QP:18.83 size: 17125x264 [info]: frame B:102226 Avg QP:20.62 size: 6383x264 [info]: consecutive B-frames: 3.1% 4.5% 12.4% 19.7% 15.8% 38.8% 3.2% 1.3% 0.5% 0.3% 0.4%
Скачать

Скачать торрент!

Как скачивать? · Что такое торрент? · Рейтинг и ограничения

Сайт не распространяет и не хранит электронные версии произведений, а лишь предоставляет доступ к создаваемому пользователями каталогу ссылок на торрент-файлы, которые содержат только списки хеш-сумм

[Профиль] [ЛС]
Показать сообщения:    
Ответить на тему

Текущее время: Сегодня 14:34

Часовой пояс: GMT + 4



Вы не можете начинать темы
Вы не можете отвечать на сообщения
Вы не можете редактировать свои сообщения
Вы не можете удалять свои сообщения
Вы не можете голосовать в опросах
Вы не можете прикреплять файлы к сообщениям
Вы не можете скачивать файлы