Счастливый конец / Хэппи Энд / Haepi-endeu / Happy End / 해피엔드 (Джи Ву Чунг / Ji Woo Chung) [1999, Южная Корея, мелодрама, драма, триллер, DVDRip-AVC] VO (den904) + Sub (Rus, Eng, Kor) + Original Kor

Ответить на тему
 
Автор Сообщение

user ®

Стаж: 11 лет

Сообщений: 15151

Пост Пост: #1 от 15-Июн-2014 20:25

[Цитировать]

Счастливый конец / Хэппи Энд / Haepi-endeu / Happy End / 해피엔드
Страна: Южная Корея
Жанр: мелодрама, драма, триллер
Год выпуска: 1999
Продолжительность: 01:39:46
Перевод: Одноголосый закадровый den904
Cубтитры: русские, английские, корейские
Оригинальная аудиодорожка: корейский
Источник (релизер): theonlyh ссылки на сторонние трекеры запрещены!
Режиссер: Джи Ву Чунг / Ji Woo Chung
В ролях: Мин-Сик Чои / Min-sik Choi, До Ён Чон / Do-yeon Jeon, Чжин Мо / Jin-mo Ju, Чжон Хванг / Mi-seon Hwang, Хен Мо /Hyeon Ju и другие.
Описание: Господин Сео на первый взгляд обыкновенный рогоносец, которому изменяет молодая жена. Он безработный и поэтому проводит почти весь день в лавочке поддержанных книг или в парке читая любовные романы, в то время как его маленькая, но властная супруга в очередной раз затевает секс-марафон с молодым любовником. Одинокие заботы о маленькой дочке и внезапные скандальные находки, подтверждающие неверность жены, наводят Сео на мысль об идеальной мести.
Сэмпл: https://yadi.sk/d/1zD55OWGTM6Wp
Качество видео: DVDRip-AVC
Формат видео: MKV
Видео: AVC, 720x384, 1.85:1, 1512 Kbps, 23.98 fps
Аудио: mp3, 2 channels, 48.0 KHz, 192 Kbps (Русский, den904)
Аудио 2: AC-3, 6 channels, 48.0 KHz, 448 Kbps (Korean)
Формат субтитров: русские и английские - softsub (SRT); корейские - VobSub
MediaInfo
General
Unique ID : 231000245791215898268161545485818995445 (0xADC9077004A5EB7695FF514FEA3F22F5)
Complete name : \Happy.End.1999.DVDRip.x264.AC3-theonlyh.mkv
Format : Matroska
Format version : Version 2
File size : 1.49 GiB
Duration : 1h 39mn
Overall bit rate : 2 139 Kbps
Encoded date : UTC 2014-06-14 06:49:10
Writing application : mkvmerge v4.4.0 ('Die Wiederkehr') сборка от Oct 31 2010 21:52:48
Writing library : libebml v1.0.0 + libmatroska v1.0.0
Video
ID : 1
Format : AVC
Format/Info : Advanced Video Codec
Format profile : Main@L3.0
Format settings, CABAC : Yes
Format settings, ReFrames : 4 frames
Codec ID : V_MPEG4/ISO/AVC
Bit rate : 1 512 Kbps
Width : 720 pixels
Height : 384 pixels
Display aspect ratio : 1.85:1
Frame rate mode : Variable
Color space : YUV
Chroma subsampling : 4:2:0
Bit depth : 8 bits
Scan type : Progressive
Writing library : x264 core 112
Encoding settings : cabac=1 / ref=2 / deblock=1:0:0 / analyse=0x1:0x111 / me=hex / subme=6 / psy=1 / psy_rd=1.00:0.00 / mixed_ref=0 / me_range=16 / chroma_me=1 / trellis=0 / 8x8dct=0 / cqm=0 / deadzone=21,11 / fast_pskip=1 / chroma_qp_offset=-2 / threads=3 / sliced_threads=0 / nr=0 / decimate=1 / interlaced=0 / constrained_intra=0 / bframes=2 / b_pyramid=2 / b_adapt=1 / b_bias=0 / direct=1 / weightb=0 / open_gop=0 / weightp=2 / keyint=240 / keyint_min=23 / scenecut=40 / intra_refresh=0 / rc_lookahead=40 / rc=abr / mbtree=1 / bitrate=1512 / ratetol=1.0 / qcomp=0.60 / qpmin=3 / qpmax=51 / qpstep=4 / ip_ratio=1.40 / aq=1:1.00
Language : English
Default : Yes
Forced : Yes
Color primaries : BT.601 NTSC
Transfer characteristics : BT.709
Matrix coefficients : BT.601
Audio #1
ID : 2
Format : MPEG Audio
Format version : Version 1
Format profile : Layer 3
Mode : Joint stereo
Codec ID : A_MPEG/L3
Codec ID/Hint : MP3
Duration : 1h 39mn
Bit rate mode : Constant
Bit rate : 192 Kbps
Channel(s) : 2 channels
Sampling rate : 48.0 KHz
Compression mode : Lossy
Stream size : 137 MiB (9%)
Title : den904 (перевод: Kasablanka)
Language : Russian
Default : No
Forced : No
Audio #2
ID : 3
Format : AC-3
Format/Info : Audio Coding 3
Mode extension : CM (complete main)
Format settings, Endianness : Big
Codec ID : A_AC3
Duration : 1h 39mn
Bit rate mode : Constant
Bit rate : 448 Kbps
Channel(s) : 6 channels
Channel positions : Front: L C R, Side: L R, LFE
Sampling rate : 48.0 KHz
Bit depth : 16 bits
Compression mode : Lossy
Stream size : 320 MiB (21%)
Title : Korean
Language : Korean
Default : Yes
Forced : Yes
Text #1
ID : 4
Format : UTF-8
Codec ID : S_TEXT/UTF8
Codec ID/Info : UTF-8 Plain Text
Title : Kasablanka
Language : Russian
Default : Yes
Forced : Yes
Text #2
ID : 5
Format : UTF-8
Codec ID : S_TEXT/UTF8
Codec ID/Info : UTF-8 Plain Text
Title : English
Language : English
Default : No
Forced : No
Text #3
ID : 6
Format : VobSub
Codec ID : S_VOBSUB
Codec ID/Info : The same subtitle format used on DVDs
Title : Korean
Language : Korean
Default : No
Forced : No
Menu
00:00:00.000 : en:Chapter 1
00:05:47.547 : en:Chapter 2
00:11:13.956 : en:Chapter 3
00:15:22.821 : en:Chapter 4
00:19:20.309 : en:Chapter 5
00:27:40.775 : en:Chapter 6
00:33:15.860 : en:Chapter 7
00:42:53.854 : en:Chapter 8
00:48:53.297 : en:Chapter 9
00:52:41.024 : en:Chapter 10
01:04:59.431 : en:Chapter 11
01:13:32.911 : en:Chapter 12
01:22:52.970 : en:Chapter 13
01:26:55.880 : en:Chapter 14
01:35:21.718 : en:Chapter 15
Скриншот c названием фильма Скриншоты Скриншоты-альтернатива
Скачать

Скачать торрент! Счастливый конец / Хэппи Энд / Haepi-endeu / Happy End / 해피엔드 (Джи Ву Чунг / Ji Woo Chung) [1999, Южная Корея, мелодрама, драма, триллер, DVDRip-AVC] VO (den904) + Sub (Rus, Eng, Kor) + Original Kor

Как скачивать? · Что такое торрент? · Рейтинг и ограничения

Сайт не распространяет и не хранит электронные версии произведений, а лишь предоставляет доступ к создаваемому пользователями каталогу ссылок на торрент-файлы, которые содержат только списки хеш-сумм

[Профиль] [ЛС]
Показать сообщения:    
Ответить на тему

Текущее время: Сегодня 16:11

Часовой пояс: GMT + 4



Вы не можете начинать темы
Вы не можете отвечать на сообщения
Вы не можете редактировать свои сообщения
Вы не можете удалять свои сообщения
Вы не можете голосовать в опросах
Вы не можете прикреплять файлы к сообщениям
Вы не можете скачивать файлы