Рыцари королевства Крутизны / Knights Of Badassdom (Джо Линч / Joe Lynch) [2013, США, комедия, фэнтези, ужасы, BDRip 720p] MVO (ViruseProject) + Sub (Rus, Eng) + Original Eng

Ответить на тему
 
Автор Сообщение

user ®

Стаж: 7 лет 7 месяцев

Сообщений: 20008

Пост Пост: #1 от 15-Июн-2014 20:25

[Цитировать]

Рыцари королевства Крутизны / Knights Of Badassdom- Страна: США
Жанр: комедия, фэнтези, ужасы
Год выпуска: 2013
Продолжительность: 01:25:27
Перевод: Любительский (многоголосый закадровый) ViruseProject
Cубтитры: русские, английские
Оригинальная аудиодорожка: английская-Режиссер: Джо Линч / Joe Lynch
В ролях: Райан Квантен, Стив Зан, Питер Динклэйдж, Саммер Глау, Маргарита Левиева, Том Хоппер, Джимми Симпсон, Дэнни Пуди, Джошуа Малина, У. Эрл Браун-Описание: Джо кидает девушка, и поэтому его друзья, повернутые на ролевых играх Эрик и Ханг, предлагают пыхнуть кальянчика и расслабиться. В итоге Джо просыпается в грузовике, разодетый в рыцаря в эпицентре ролевой игры. Дружбаны уговаривают его провести этот ролевой день с ними, чтобы Джо забыл свою девушку. Далее Эрик, сам того не зная, вызывает демона при помощи книги, купленной в интернете, и теперь друзьям нужно победить этого демона, спасти целое поле народа и самим не погибнуть…- -Доп. информация:

ViruseProject писал(а):
Закадровое озвучание: Марина Видякина, Елена Емельянова, Алекс Викке, Алексей Кизуб, Дмитрий Кравченко, Дмитрий Иванов, Александр Федоров, Александр Мигунов (shaMan) и Евгений Яковель
Перевод: Татьяна Масаковская (при участии МЕГАПЫХАРЯ)
Сведение звука: Виталий Емельянов
-
Тип релиза: BDRip 720p
Контейнер: MKV
Видео: x.264, 1280x534, 5816 Kbps, 23.976 fps
Аудио 1: DTS, 48000 Hz, 1509 Kbps, 5.1 channels - RUS
Аудио 2: DTS, 48000 Hz, 1509 Kbps, 5.1 channels - ENG
Формат субтитров: softsub (SRT) - русские, английские
-Скриншоты Резервные скриншоты
-
MediaInfo
Format : Matroska
Format version : Version 4 / Version 2
File size : 5.28 GiB
Duration : 1h 25mn
Overall bit rate : 8 838 Kbps
Movie name : Рыцари королевства Крутизны / Knights of Badassdom (2013) BDRip 720p - RG Torrents.ru
Encoded date : UTC 2014-06-13 11:43:03
Writing application : mkvmerge v7.0.0 ('Where We Going') 32bit built on Jun 9 2014 15:08:34
Writing library : libebml v1.3.0 + libmatroska v1.4.1
DURATION : 01:24:56.926000000
NUMBER_OF_FRAMES : 1547
NUMBER_OF_BYTES : 40633
_STATISTICS_WRITING_APP : mkvmerge v7.0.0 ('Where We Going') 32bit built on Jun 9 2014 15:08:34
_STATISTICS_WRITING_DATE_UTC : 2014-06-13 11:43:03
_STATISTICS_TAGS : BPS DURATION NUMBER_OF_FRAMES NUMBER_OF_BYTES
Attachment : Yes
Video
ID : 1
Format : AVC
Format/Info : Advanced Video Codec
Format profile : High@L4.1
Format settings, CABAC : Yes
Format settings, ReFrames : 10 frames
Codec ID : V_MPEG4/ISO/AVC
Duration : 1h 25mn
Bit rate : 5 816 Kbps
Width : 1 280 pixels
Height : 534 pixels
Display aspect ratio : 2.40:1
Frame rate mode : Constant
Frame rate : 23.976 fps
Color space : YUV
Chroma subsampling : 4:2:0
Bit depth : 8 bits
Scan type : Progressive
Bits/(Pixel*Frame) : 0.355
Stream size : 3.37 GiB (64%)
Title : RG Torrents.ru
Writing library : x264 core 142 r2431 ac76440
Encoding settings : cabac=1 / ref=10 / deblock=1:-3:-3 / analyse=0x3:0x113 / me=umh / subme=10 / psy=1 / psy_rd=1.00:0.10 / mixed_ref=1 / me_range=32 / chroma_me=1 / trellis=2 / 8x8dct=1 / cqm=0 / deadzone=21,11 / fast_pskip=0 / chroma_qp_offset=-3 / threads=6 / lookahead_threads=1 / sliced_threads=0 / nr=0 / decimate=1 / interlaced=0 / bluray_compat=0 / constrained_intra=0 / bframes=10 / b_pyramid=2 / b_adapt=2 / b_bias=0 / direct=3 / weightb=1 / open_gop=0 / weightp=2 / keyint=240 / keyint_min=23 / scenecut=40 / intra_refresh=0 / rc_lookahead=40 / rc=2pass / mbtree=0 / bitrate=5816 / ratetol=1.0 / qcomp=0.70 / qpmin=0 / qpmax=69 / qpstep=4 / cplxblur=20.0 / qblur=0.5 / vbv_maxrate=25000 / vbv_bufsize=30000 / nal_hrd=none / filler=0 / ip_ratio=1.30 / pb_ratio=1.30 / aq=2:1.00 / zones=116255,122928,b=0.35
Language : English
Default : Yes
Forced : No
DURATION : 01:25:27.164000000
NUMBER_OF_FRAMES : 122929
NUMBER_OF_BYTES : 3727697647
_STATISTICS_WRITING_APP : mkvmerge v7.0.0 ('Where We Going') 32bit built on Jun 9 2014 15:08:34
_STATISTICS_WRITING_DATE_UTC : 2014-06-13 11:43:03
_STATISTICS_TAGS : BPS DURATION NUMBER_OF_FRAMES NUMBER_OF_BYTES
Audio #1
ID : 2
Format : DTS
Format/Info : Digital Theater Systems
Mode : 16
Format settings, Endianness : Big
Codec ID : A_DTS
Duration : 1h 25mn
Bit rate mode : Constant
Bit rate : 1 509 Kbps
Channel(s) : 6 channels
Channel positions : Front: L C R, Side: L R, LFE
Sampling rate : 48.0 KHz
Bit depth : 16 bits
Compression mode : Lossy
Stream size : 922 MiB (17%)
Title : MVO - ViruseProject
Language : Russian
Default : Yes
Forced : No
Audio #2
ID : 3
Format : DTS
Format/Info : Digital Theater Systems
Mode : 16
Format settings, Endianness : Big
Codec ID : A_DTS
Duration : 1h 25mn
Bit rate mode : Constant
Bit rate : 1 509 Kbps
Channel(s) : 6 channels
Channel positions : Front: L C R, Side: L R, LFE
Sampling rate : 48.0 KHz
Bit depth : 16 bits
Compression mode : Lossy
Stream size : 922 MiB (17%)
Title : Original
Language : English
Default : No
Forced : No
Text #1
ID : 4
Format : UTF-8
Codec ID : S_TEXT/UTF8
Codec ID/Info : UTF-8 Plain Text
Language : Russian
Default : No
Forced : No
Text #2
ID : 5
Format : UTF-8
Codec ID : S_TEXT/UTF8
Codec ID/Info : UTF-8 Plain Text
Language : English
Default : No
Forced : No
Menu
00:00:00.000 : :Chapter 01
00:05:02.510 : :Chapter 02
00:09:34.824 : :Chapter 03
00:12:56.567 : :Chapter 04
00:18:42.037 : :Chapter 05
00:25:52.801 : :Chapter 06
00:31:01.234 : :Chapter 07
00:35:34.006 : :Chapter 08
00:42:39.473 : :Chapter 09
00:46:58.398 : :Chapter 10
00:52:13.088 : :Chapter 11
00:57:53.344 : :Chapter 12
01:02:52.226 : :Chapter 13
01:10:05.284 : :Chapter 14
01:16:33.130 : :Chapter 15
01:20:48.802 : :Chapter 16
Скачать

Скачать торрент!

Как скачивать? · Что такое торрент? · Рейтинг и ограничения

Сайт не распространяет и не хранит электронные версии произведений, а лишь предоставляет доступ к создаваемому пользователями каталогу ссылок на торрент-файлы, которые содержат только списки хеш-сумм

[Профиль] [ЛС]
Показать сообщения:    
Ответить на тему

Текущее время: Сегодня 21:56

Часовой пояс: GMT + 4



Вы не можете начинать темы
Вы не можете отвечать на сообщения
Вы не можете редактировать свои сообщения
Вы не можете удалять свои сообщения
Вы не можете голосовать в опросах
Вы не можете прикреплять файлы к сообщениям
Вы не можете скачивать файлы