Афера по-американски / American Hustle (Дэвид О. Расселл / David O. Russell) [2013, США, драма, комедия, BDRip 720p] Dub + AVO Гаврилов + VO Doctor Joker + Original Eng + Sub Rus, Eng

Ответить на тему
 
Автор Сообщение

user ®

Стаж: 7 лет 7 месяцев

Сообщений: 20008

Пост Пост: #1 от 15-Июн-2014 20:25

[Цитировать]

Афера по-американски / American Hustle- Страна: США
Жанр: драма, комедия
Год выпуска: 2013
Продолжительность: 02:18:04
Перевод: Профессиональный (дублированный)
+ Авторский одноголосый закадровый
+ Одноголосый закадровый ненормативная лексика
Cубтитры: русские, английские
Оригинальная аудиодорожка: английский-Режиссер: Дэвид О. Расселл / David O. Russell
В ролях: Кристиан Бэйл, Эми Адамс, Брэдли Купер, Дженнифер Лоуренс, Джереми Реннер, Луис С.К., Алессандро Нивола, Джек Хьюстон, Роберт Де Ниро, Майкл Пенья.
Описание: Ирвинг Розенвельд — профессиональный мошенник, зарабатывающий на жизнь продажей оригиналов картин известных художников. Вместе со своей напарницей и любовницей Синди он прокрутил не одну аферу, но со временем работать становилось все сложнее. Когда дела у парочки пошли совсем плохо, им пришлось согласиться на сотрудничество с ФБР, которое расследовало дело о продажных политиках и коррупции в высших эшелонах власти. С помощью агента Ричи Димацо мошенники внедряются в крупную преступную группировку под видом посредников. Их главной целью становится мэр Нью-Джерси Кармайн Полито, которого им предстоит уличить в преступной деятельности. Однако сделать эту будет очень непросто...-Тип релиза: BDRip 720p
Контейнер: MKV | Sample
Видео: 1280x534 (2.40:1), 23.976 fps, x264@L4.1 ~8977 kbps avg
Аудио 1: Russian 48 kHz, DTS, 3/2 (L,C,R,l,r) + LFE ch, 1509.00 kbps avg | Blu-ray
Аудио 2: Russian 48 kHz, DTS, 3/2 (L,C,R,l,r) + LFE ch, 1509.00 kbps avg | AVO Гаврилов
Аудио 3: Russian 48 kHz, DTS, 3/2 (L,C,R,l,r) + LFE ch, 1509.00 kbps avg | VO Doctor Joker
Аудио 4: English 48 kHz, DTS, 3/2 (L,C,R,l,r) + LFE ch, 1509.00 kbps avg | Original

Скриншоты Медиаинфо
Общее
Формат : Matroska
Версия формата : Version 4 / Version 2
Размер файла : 14,8 Гбайт
Продолжительность : 2 ч. 18 м.
Общий поток : 15,3 Мбит/сек
Название фильма : American Hustle 2013
Дата кодирования : UTC 2014-06-14 13:12:57
Программа кодирования : mkvmerge v6.1.0 ('Old Devil') built on Mar 4 2013 09:10:42
Библиотека кодирования : libebml v1.3.0 + libmatroska v1.4.0
Видео
Идентификатор : 1
Формат : AVC
Формат/Информация : Advanced Video Codec
Профиль формата : High@L4.1
Параметр CABAC формата : Да
Параметр ReFrames формата : 12 кадров
Идентификатор кодека : V_MPEG4/ISO/AVC
Продолжительность : 2 ч. 18 м.
Битрейт : 8977 Кбит/сек
Ширина : 1280 пикселей
Высота : 534 пикселя
Соотношение сторон : 2,40:1
Режим частоты кадров : Постоянный
Частота кадров : 23,976 кадра/сек
Цветовое пространство : YUV
Субдискретизация насыщенности : 4:2:0
Битовая глубина : 8 бит
Тип развёртки : Прогрессивная
Бит/(Пиксели*Кадры) : 0.548
Размер потока : 8,66 Гбайт (59%)
Заголовок : BDRip 720p
Библиотека кодирования : x264 core 133 r2334 a3ac64b
Настройки программы : cabac=1 / ref=12 / deblock=1:-3:-3 / analyse=0x3:0x133 / me=umh / subme=11 / psy=1 / psy_rd=1.05:0.00 / mixed_ref=1 / me_range=48 / chroma_me=1 / trellis=2 / 8x8dct=1 / cqm=0 / deadzone=21,11 / fast_pskip=0 / chroma_qp_offset=-2 / threads=6 / lookahead_threads=1 / sliced_threads=0 / nr=0 / decimate=0 / interlaced=0 / bluray_compat=0 / constrained_intra=0 / bframes=9 / b_pyramid=2 / b_adapt=2 / b_bias=0 / direct=3 / weightb=1 / open_gop=0 / weightp=2 / keyint=250 / keyint_min=23 / scenecut=40 / intra_refresh=0 / rc=crf / mbtree=0 / crf=16.3 / qcomp=0.65 / qpmin=0 / qpmax=69 / qpstep=4 / ip_ratio=1.20 / pb_ratio=1.10 / aq=1:0.70
Язык : English
Default : Да
Forced : Нет
Аудио #1
Идентификатор : 2
Формат : DTS
Формат/Информация : Digital Theater Systems
Режим : 16
Параметр Endianness формата : Big
Идентификатор кодека : A_DTS
Продолжительность : 2 ч. 18 м.
Вид битрейта : Постоянный
Битрейт : 1509 Кбит/сек
Каналы : 6 каналов
Расположение каналов : Front: L C R, Side: L R, LFE
Частота : 48,0 КГц
Битовая глубина : 16 бит
Метод сжатия : С потерями
Размер потока : 1,46 Гбайт (10%)
Заголовок : Blu-ray
Язык : Russian
Default : Да
Forced : Нет
Аудио #2
Идентификатор : 3
Формат : DTS
Формат/Информация : Digital Theater Systems
Режим : 16
Параметр Endianness формата : Big
Идентификатор кодека : A_DTS
Продолжительность : 2 ч. 18 м.
Вид битрейта : Постоянный
Битрейт : 1509 Кбит/сек
Каналы : 6 каналов
Расположение каналов : Front: L C R, Side: L R, LFE
Частота : 48,0 КГц
Битовая глубина : 24 бит
Метод сжатия : С потерями
Размер потока : 1,46 Гбайт (10%)
Заголовок : AVO Гаврилов
Язык : Russian
Default : Нет
Forced : Нет
Аудио #3
Идентификатор : 4
Формат : DTS
Формат/Информация : Digital Theater Systems
Режим : 16
Параметр Endianness формата : Big
Идентификатор кодека : A_DTS
Продолжительность : 2 ч. 18 м.
Вид битрейта : Постоянный
Битрейт : 1509 Кбит/сек
Каналы : 6 каналов
Расположение каналов : Front: L C R, Side: L R, LFE
Частота : 48,0 КГц
Битовая глубина : 24 бит
Метод сжатия : С потерями
Размер потока : 1,46 Гбайт (10%)
Заголовок : VO Doctor Joker
Язык : Russian
Default : Нет
Forced : Нет
Аудио #4
Идентификатор : 5
Формат : DTS
Формат/Информация : Digital Theater Systems
Режим : 16
Параметр Endianness формата : Big
Идентификатор кодека : A_DTS
Продолжительность : 2 ч. 18 м.
Вид битрейта : Постоянный
Битрейт : 1509 Кбит/сек
Каналы : 6 каналов
Расположение каналов : Front: L C R, Side: L R, LFE
Частота : 48,0 КГц
Битовая глубина : 24 бит
Метод сжатия : С потерями
Размер потока : 1,46 Гбайт (10%)
Заголовок : Original
Язык : English
Default : Нет
Forced : Нет
Текст #1
Идентификатор : 6
Формат : UTF-8
Идентификатор кодека : S_TEXT/UTF8
Идентификатор кодека/Информация : UTF-8 Plain Text
Заголовок : Full
Язык : Russian
Default : Нет
Forced : Нет
Текст #2
Идентификатор : 7
Формат : UTF-8
Идентификатор кодека : S_TEXT/UTF8
Идентификатор кодека/Информация : UTF-8 Plain Text
Заголовок : Full Doctor Joker
Язык : Russian
Default : Нет
Forced : Нет
Текст #3
Идентификатор : 8
Формат : UTF-8
Идентификатор кодека : S_TEXT/UTF8
Идентификатор кодека/Информация : UTF-8 Plain Text
Заголовок : Forced
Язык : English
Default : Нет
Forced : Нет
Текст #4
Идентификатор : 9
Формат : UTF-8
Идентификатор кодека : S_TEXT/UTF8
Идентификатор кодека/Информация : UTF-8 Plain Text
Заголовок : Full
Язык : English
Default : Нет
Forced : Нет
Текст #5
Идентификатор : 10
Формат : UTF-8
Идентификатор кодека : S_TEXT/UTF8
Идентификатор кодека/Информация : UTF-8 Plain Text
Заголовок : Full SDH
Язык : English
Default : Нет
Forced : Нет
Меню
00:00:00.000 : :00:00:00.000
00:07:12.641 : :00:07:12.641
00:14:11.142 : :00:14:11.142
00:24:08.822 : :00:24:08.822
00:31:28.970 : :00:31:28.970
00:39:16.104 : :00:39:16.104
00:48:40.334 : :00:48:40.334
00:57:01.001 : :00:57:01.001
01:06:18.600 : :01:06:18.600
01:15:30.943 : :01:15:30.943
01:24:12.756 : :01:24:12.756
01:33:09.793 : :01:33:09.793
01:41:35.089 : :01:41:35.089
01:51:45.824 : :01:51:45.824
02:00:25.301 : :02:00:25.301
02:09:50.992 : :02:09:50.992
Дополнительно
Релиз: HDCLUB
Дорожка с переводом Андрея Гаврилова доступна благодаря пользователям форума e180: foxlight, Nick, Nadoelo, oleg-k, uchitel538, dir, Kastro, axl-dr, ZeDOK, GKillah, ultrajeka, MyxAmoP, bla_, Диммон, Эдуард, пуля, chef&chef, furria62, Loki1982, luka69, Iceman, karantin66, zeleniy, LAVR, jorn2, masta, kabukiman, kiruxa-k, SavineX78, audiolubitel, Valen, Splinter, rydanes, Rayan, фёдор александрович, carnivale, v1111o, Consul, User, Chistobaev, anton966, Roman Lee, fryak, nimph, _shurik_, 2vova2, Ochkarik1, Savely, Denis2251, maximus10-99, Dr.Crane, olegsoleg, vik19662007, Skoped, Anymouse, Andrey_Tula, tide, shurik36, Gross1978, videolover, ilbilb, Bilko. Работа со звуком Bloodymetall.
За дорожку с переводом Алексея Матвеева (без цензуры) спасибо будулайроманов с Переулка Переводмана. Работа со звуком Переводман.
Скачать

Скачать торрент!

Как скачивать? · Что такое торрент? · Рейтинг и ограничения

Сайт не распространяет и не хранит электронные версии произведений, а лишь предоставляет доступ к создаваемому пользователями каталогу ссылок на торрент-файлы, которые содержат только списки хеш-сумм

[Профиль] [ЛС]
Показать сообщения:    
Ответить на тему

Текущее время: Сегодня 21:58

Часовой пояс: GMT + 4



Вы не можете начинать темы
Вы не можете отвечать на сообщения
Вы не можете редактировать свои сообщения
Вы не можете удалять свои сообщения
Вы не можете голосовать в опросах
Вы не можете прикреплять файлы к сообщениям
Вы не можете скачивать файлы