Волк с Уолл-стрит / The Wolf of Wall Street (Мартин Скорсезе / Martin Scorsese) [2013, США, драма, комедия, криминал, биография, BDRip 720p] Dub + 2х AVO (Немахов, Визгунов) + Sub Rus, Eng + Original Eng

Ответить на тему
 
Автор Сообщение

user ®

Стаж: 7 лет 7 месяцев

Сообщений: 20008

Пост Пост: #1 от 15-Июн-2014 20:25

[Цитировать]

Волк с Уолл-стрит / The Wolf of Wall Street- Страна: США
Студия: Appian Way, EMJAG Productions, Red Granite Pictures, Sikelia Productions
Жанр: драма, комедия, криминал, биография
Год выпуска: 2013
Продолжительность: 02:59:52-Перевод: Профессиональный (дублированный) студия "Пифагор"
Перевод 2: Авторский (одноголосый закадровый) Ю.Немахов
Перевод 3: Авторский (одноголосый закадровый) С.Визгунов
Cубтитры: Rus (notabenoid), Rus (voronine), Eng, Eng (SDH), Fre (Надписи и т.д), Fre, Spa (Надписи и т.д), Spa.
Оригинальная аудиодорожка: английский-Режиссер: Мартин Скорсезе / Martin Scorsese
В ролях: Леонардо ДиКаприо, Джона Хилл, Марго Робби, Кайл Чандлер, Роб Райнер, П.Дж. Бирн , Джон Бернтал, Кристин Милиоти , Жан Дюжарден, Мэттью МакКонахи, Кеннет Чои, Джон Фавро.
Описание: 1987 год. Джордан Белфорт становится брокером в успешном инвестиционном банке. Вскоре банк закрывается после внезапного обвала индекса Доу-Джонса. По совету жены Терезы Джордан устраивается в небольшое заведение, занимающееся мелкими акциями. Его настойчивый стиль общения с клиентами и врождённая харизма быстро даёт свои плоды. Он знакомится с соседом по дому Донни, торговцем, который сразу находит общий язык с Джорданом и решает открыть с ним собственную фирму. В качестве сотрудников они нанимают нескольких друзей Белфорта, его отца Макса и называют компанию «Стрэттон Оукмонт». В свободное от работы время Джордан прожигает жизнь: лавирует от одной вечеринки к другой, вступает в сексуальные отношения с проститутками, употребляет множество наркотических препаратов, в том числе кокаин и кваалюд. Однажды наступает момент, когда быстрым обогащением Белфорта начинает интересоваться агент ФБР...-Рип от: TayTO (HDBits internal).
Сэмпл: sendfile→, rusfolder→
Тип релиза: BDRip 720p
Контейнер: MKV
Видео: 1280 x 534 (2.397), x264, High@L4.1, 23.976 fps, 7344 Kbps
Аудио: 48 kHz, DD 5.1 - 448 kbps |Дубляж|
Аудио 2: 48 kHz, DTS 5.1 - 1536 kbps |AVO, Ю.Немахов|
Аудио 3: 48 kHz, DTS 5.1 - 1536 kbps |AVO, С.Визгунов|
Аудио 4: 48 kHz, DTS 5.1 - 1536 kbps |Оригинал|
Release info
RELEASE NAME..: The.Wolf.of.Wall.Street.2013.720p.BluRay.DTS.x264-TayTO
ENCODED DATE..: UTC 2014-03-18 01:57:00
RELEASE SiZE..: 11.1 GiB
RUNTiME.......: 2h 59mn
ViDEO CODEC...: x264, High@L4.1
FRAMERATE.....: 23.976 fps
BiTRATE.......: 7 170 Kbps
RESOLUTiON....: 1280x534
AUDiO.........: English DTS 5.1@1 510 Kbps
CHAPTERS......: Yes
SUBTiTLES.....: English,English(SDH),French(Forced),French,Spanish(Forced),Spanish
SOURCE........: The Wolf of Wall Street 2013 1080p Blu-ray AVC DTS-HD MA 5.1-PCH (Thx Batistuta!)
x264 iNFO
x264 [info]: frame I:2246 Avg QP:13.45 size:132986
x264 [info]: frame P:55561 Avg QP:14.90 size: 59604
x264 [info]: frame B:200951 Avg QP:15.94 size: 31337
x264 [info]: consecutive B-frames: 1.9% 2.3% 8.9% 18.8% 17.2% 40.6% 5.8% 4.5%
encoded 258758 frames, 4.16 fps, 7344.18 kb/s, duration 17:16:07.59
Цитата:
  • За перевод Юрия Немахова спасибо пользователям форума e180: foxlight, oleg-k, axl-dr, Loki1982, zeleniy, xerman13, kRIPtograf, anton966, Savely, Andrey_Tula, vik19662007, luka69, ANISKIN50, safreks, Nadoelo, Foots, 2vova2, kiruxa-k, carnivale, Pumamen, пуля, DMX-92, Chistobaev, GKillah, semargl, kabukiman, tide, Slimka, dvd100, Valen, GaryH, Марлон, denus, rammzez, Некрасов, v1111o, MyxAmoP, ZeDOK, Skazhutin, saigons, ARTYq, STONECOLD, masta. Работа со звуком: Bloodymetal.
  • За перевод Сергея Визгунова спасибо пользователям форума e180: foxlight, xerman13, tide, Andrey_Tula, Loki1982, zeleniy, Savely, uchitel538, luka69, safreks, Nick, dir, GaryH, v1111o, MyxAmoP, ZeDOK, Skoped, markinscor, STONECOLD, phaeton77, masta, Pro_Rock. Работа со звуком: rammzez.
MediaInfo
Полное имя : The.Wolf.of.Wall.Street.2013.720p.BluRay.DTS.x264-TayTO.Rus.Eng.mkv
Формат : Matroska
Версия формата : Version 4 / Version 2
Размер файла : 15.5 GiB
Продолжительность : 2h 59mn
Общий поток : 12.3 Mbps
Название фильма : The Wolf of Wall Street (2013) | Rip by TayTO
Дата кодирования : UTC 2014-06-14 17:44:18
Программа кодирования : mkvmerge v6.5.0 ('Isn't she lovely') built on Oct 20 2013 12:50:05
Библиотека кодирования : libebml v1.3.0 + libmatroska v1.4.1
Video
Идентификатор : 1
Формат : AVC
Формат/Информация : Advanced Video Codec
Профиль формата : High@L4.1
Параметр CABAC формата : Yes
Параметр ReFrames формата : 12 frames
Идентификатор кодека : V_MPEG4/ISO/AVC
Продолжительность : 2h 59mn
Битрейт : 7 117 Kbps
Ширина : 1 280 pixels
Высота : 534 pixels
Соотношение сторон : 2.40:1
Режим частоты кадров : Constant
Частота кадров : 23.976 fps
Цветовое пространство : YUV
Субдискретизация насыщенности : 4:2:0
Битовая глубина : 8 bits
Тип развёртки : Progressive
Бит/(Пиксели*Кадры) : 0.434
Размер потока : 8.94 GiB (58%)
Заголовок : The Wolf of Wall Street (2013) by Djex
Библиотека кодирования : x264 core 142 r2389kMod 956c8d8
Настройки программы : cabac=1 / ref=12 / deblock=1:-3:-3 / analyse=0x3:0x133 / me=tesa / subme=11 / psy=1 / fade_compensate=0.00 / psy_rd=1.00:0.00 / mixed_ref=1 / me_range=24 / chroma_me=1 / trellis=2 / 8x8dct=1 / cqm=0 / deadzone=21,11 / fast_pskip=0 / chroma_qp_offset=-2 / threads=12 / lookahead_threads=2 / sliced_threads=0 / nr=0 / decimate=1 / interlaced=0 / bluray_compat=0 / constrained_intra=0 / fgo=0 / bframes=7 / b_pyramid=2 / b_adapt=2 / b_bias=0 / direct=3 / weightb=1 / open_gop=0 / weightp=2 / keyint=250 / keyint_min=23 / scenecut=40 / intra_refresh=0 / rc=crf / mbtree=0 / crf=15.2000 / qcomp=0.65 / qpmin=0 / qpmax=69 / qpstep=4 / ip_ratio=1.30 / pb_ratio=1.20 / aq=1:0.85
Язык : English
Default : Yes
Forced : No
Коэффициенты матрицы : BT.709
Audio #1
Идентификатор : 2
Формат : AC-3
Формат/Информация : Audio Coding 3
Расширение режима : CM (complete main)
Параметр Endianness формата : Big
Идентификатор кодека : A_AC3
Продолжительность : 2h 59mn
Вид битрейта : Constant
Битрейт : 448 Kbps
Каналы : 6 channels
Расположение каналов : Front: L C R, Side: L R, LFE
Частота : 48.0 KHz
Битовая глубина : 16 bits
Метод сжатия : Lossy
Размер потока : 576 MiB (4%)
Заголовок : DD 5.1 - 448 kbps |Дубляж|
Язык : Russian
Default : Yes
Forced : No
Audio #2
Идентификатор : 3
Формат : DTS
Формат/Информация : Digital Theater Systems
Режим : 16
Параметр Endianness формата : Big
Идентификатор кодека : A_DTS
Продолжительность : 2h 59mn
Вид битрейта : Constant
Битрейт : 1 509 Kbps
Каналы : 6 channels
Расположение каналов : Front: L C R, Side: L R, LFE
Частота : 48.0 KHz
Битовая глубина : 24 bits
Метод сжатия : Lossy
Размер потока : 1.90 GiB (12%)
Заголовок : DTS 5.1 - 1536 kbps |AVO, Ю.Немахов|
Язык : Russian
Default : No
Forced : No
Audio #3
Идентификатор : 4
Формат : DTS
Формат/Информация : Digital Theater Systems
Режим : 16
Параметр Endianness формата : Big
Идентификатор кодека : A_DTS
Продолжительность : 2h 59mn
Вид битрейта : Constant
Битрейт : 1 509 Kbps
Каналы : 6 channels
Расположение каналов : Front: L C R, Side: L R, LFE
Частота : 48.0 KHz
Битовая глубина : 24 bits
Метод сжатия : Lossy
Размер потока : 1.90 GiB (12%)
Заголовок : DTS 5.1 - 1536 kbps |AVO, С.Визгунов|
Язык : Russian
Default : No
Forced : No
Audio #4
Идентификатор : 5
Формат : DTS
Формат/Информация : Digital Theater Systems
Режим : 16
Параметр Endianness формата : Big
Идентификатор кодека : A_DTS
Продолжительность : 2h 59mn
Вид битрейта : Constant
Битрейт : 1 509 Kbps
Каналы : 6 channels
Расположение каналов : Front: L C R, Side: L R, LFE
Частота : 48.0 KHz
Битовая глубина : 24 bits
Метод сжатия : Lossy
Размер потока : 1.90 GiB (12%)
Заголовок : DTS 5.1 - 1536 kbps |Оригинал|
Язык : English
Default : No
Forced : No
Text #1
Идентификатор : 6
Формат : UTF-8
Идентификатор кодека : S_TEXT/UTF8
Идентификатор кодека/Информация : UTF-8 Plain Text
Заголовок : notabenoid (Ненормативная лексика)
Язык : Russian
Default : No
Forced : No
Text #2
Идентификатор : 7
Формат : VobSub
Режим смешивания : zlib
Идентификатор кодека : S_VOBSUB
Идентификатор кодека/Информация : The same subtitle format used on DVDs
Заголовок : voronine
Язык : Russian
Default : No
Forced : No
Text #3
Идентификатор : 8
Формат : UTF-8
Идентификатор кодека : S_TEXT/UTF8
Идентификатор кодека/Информация : UTF-8 Plain Text
Язык : English
Default : No
Forced : No
Text #4
Идентификатор : 9
Формат : UTF-8
Идентификатор кодека : S_TEXT/UTF8
Идентификатор кодека/Информация : UTF-8 Plain Text
Заголовок : SDH
Язык : English
Default : No
Forced : No
Text #5
Идентификатор : 10
Формат : UTF-8
Идентификатор кодека : S_TEXT/UTF8
Идентификатор кодека/Информация : UTF-8 Plain Text
Заголовок : Надписи и т.д
Язык : French
Default : No
Forced : No
Text #6
Идентификатор : 11
Формат : UTF-8
Идентификатор кодека : S_TEXT/UTF8
Идентификатор кодека/Информация : UTF-8 Plain Text
Язык : French
Default : No
Forced : No
Text #7
Идентификатор : 12
Формат : UTF-8
Идентификатор кодека : S_TEXT/UTF8
Идентификатор кодека/Информация : UTF-8 Plain Text
Заголовок : Надписи и т.д
Язык : Spanish
Default : No
Forced : No
Text #8
Идентификатор : 13
Формат : UTF-8
Идентификатор кодека : S_TEXT/UTF8
Идентификатор кодека/Информация : UTF-8 Plain Text
Язык : Spanish
Default : No
Forced : No
Menu
00:00:00.000 : en:00:00:00.000
00:07:55.934 : en:00:07:55.934
00:14:17.857 : en:00:14:17.857
00:21:31.415 : en:00:21:31.415
00:32:08.093 : en:00:32:08.093
00:40:14.495 : en:00:40:14.495
00:48:33.577 : en:00:48:33.577
00:55:21.777 : en:00:55:21.777
01:01:56.046 : en:01:01:56.046
01:07:00.475 : en:01:07:00.475
01:11:28.910 : en:01:11:28.910
01:19:49.868 : en:01:19:49.868
01:29:06.883 : en:01:29:06.883
01:37:47.403 : en:01:37:47.403
01:45:11.931 : en:01:45:11.931
01:54:39.998 : en:01:54:39.998
02:03:20.184 : en:02:03:20.184
02:07:28.015 : en:02:07:28.015
02:17:12.850 : en:02:17:12.850
02:25:25.467 : en:02:25:25.467
02:32:08.619 : en:02:32:08.619
02:36:38.723 : en:02:36:38.723
02:44:19.266 : en:02:44:19.266
02:53:04.291 : en:02:53:04.291
Скриншоты
Source - TayTO - AMIABLE ([url=http://***/forum/viewtopic.php?t=4692468]эта раздача[/url])







Скачать

Скачать торрент!

Как скачивать? · Что такое торрент? · Рейтинг и ограничения

Сайт не распространяет и не хранит электронные версии произведений, а лишь предоставляет доступ к создаваемому пользователями каталогу ссылок на торрент-файлы, которые содержат только списки хеш-сумм

[Профиль] [ЛС]
Показать сообщения:    
Ответить на тему

Текущее время: Сегодня 02:20

Часовой пояс: GMT + 4



Вы не можете начинать темы
Вы не можете отвечать на сообщения
Вы не можете редактировать свои сообщения
Вы не можете удалять свои сообщения
Вы не можете голосовать в опросах
Вы не можете прикреплять файлы к сообщениям
Вы не можете скачивать файлы