От меня к тебе / Дотянуться до тебя / Reaching you / Kimi ni Todoke (Кумадзава Наото / Kumazawa Naoto) [2010, Япония, романтика, школа, комедия, HDRip] DVO (Green Tea) + original Jap + Sub (rus, eng)

Ответить на тему
 
Автор Сообщение

user ®

Стаж: 11 лет

Сообщений: 15151

Пост Пост: #1 от 15-Июн-2014 05:30

[Цитировать]

От меня к тебе / Дотянуться до тебя / Reaching you / Kimi ni Todoke- -Страна: Япония
Жанр: романтика, школа, комедия
Год выпуска: 2010
Продолжительность: 02:08:34-Перевод: Любительский (двухголосый закадровый) [Green Tea]-Cубтитры: русские (SRT), английские (ASS) [отдельно]
Оригинальная аудиодорожка: японский
Режиссер: Кумадзава Наото / Kumazawa Naoto
В ролях: Микако Табе, Харума Миура, Мисако Ренбуцу, Хару Аояма, Рёка Ихара, Масанобу Кацумура, Миреи Киритани, Нацуна Ватанабэ, Ясуко Томита
Описание: 15-летняя Савако Куронума — милая и мягкая девушка, желающая людям только добра. Но судьба и родители наградили ее внешностью героини пресловутого «Звонка», и одноклассники считают, что даже столкнуться с «Садако» — дурная примета, а стоит заговорить с ней — будешь проклят навеки. Скромность и застенчивость Савако тоже делу не помогают. Так бы и пропала девушка в старшей школе, если бы не Сёта Кадзэхая — всеобщий любимец, простой и открытый парень. Он первым начал разговаривать с Савако, которая, конечно же, давно питала к нему сильное чувство. За Кадзэхаей понемногу последовала вся его компания, и вот бывшей «золушке» уже волей-неволей пришлось тянуться за ними и открываться людям, при этом демонстрируя неожиданные таланты, вовсе не те, на которые намекали досужие сплетницы.
Релиз от -
Сэмпл: http://multi-up.com/980121
Качество видео: HDRip
Формат видео: AVI
Видео: MPEG-4 Visual at 1781 Кбит/сек; 704 x 384 (1.833) at 23.976 fps
Аудио: AC-3 at 192 Кбит/сек; 2 канала, 48,0 КГц [DVO]
Аудио: AC-3 at 448 Кбит/сек; 6 каналов, 48,0 КГц [Jap]
Автор -
MediaInfo
Общее
Полное имя : D:\Фильмы\Азиатские\Дотянуться до тебя\Reaching you.2010.HDRip.XviD.2200MB. rip by [Assassin's Creed]\Reaching you.2010.HDRip.XviD.2200MB. rip by [Assassin's Creed].avi
Формат : AVI
Формат/Информация : Audio Video Interleave
Профиль формата : OpenDML
Размер файла : 2,19 Гбайт
Продолжительность : 2 ч. 8 м.
Общий поток : 2438 Кбит/сек
Программа кодирования : VirtualDubMod 1.5.10.2 (build 2540/release)
Библиотека кодирования : VirtualDubMod build 2540/release
Видео
Идентификатор : 0
Формат : MPEG-4 Visual
Профиль формата : Advanced Simple@L5
Параметр BVOP формата : 1
Параметр QPel формата : Нет
Параметр GMC формата : Без точки перехода
Параметр матрицы формата : Default (MPEG)
Идентификатор кодека : XVID
Идентификатор кодека/Подсказка : XviD
Продолжительность : 2 ч. 8 м.
Битрейт : 1781 Кбит/сек
Ширина : 704 пикселя
Высота : 384 пикселя
Соотношение сторон : 1,85:1
Частота кадров : 23,976 кадра/сек
Цветовое пространство : YUV
Субдискретизация насыщенности : 4:2:0
Битовая глубина : 8 бит
Тип развёртки : Прогрессивная
Метод сжатия : С потерями
Бит/(Пиксели*Кадры) : 0.275
Размер потока : 1,60 Гбайт (73%)
Библиотека кодирования : XviD 1.2.1 (UTC 2008-12-04)
Аудио #1
Идентификатор : 1
Формат : AC-3
Формат/Информация : Audio Coding 3
Расширение режима : CM (complete main)
Параметр Endianness формата : Big
Идентификатор кодека : 2000
Продолжительность : 2 ч. 8 м.
Вид битрейта : Постоянный
Битрейт : 192 Кбит/сек
Каналы : 2 канала
Расположение каналов : Front: L R
Частота : 48,0 КГц
Битовая глубина : 16 бит
Метод сжатия : С потерями
Размер потока : 177 Мбайт (8%)
Выравнивание : Разделение по промежуткам
Продолжительность промежутка : 42 мс. (1,00 видеокадр)
Время предзагрузки промежутка : 500 мс.
Аудио #2
Идентификатор : 2
Формат : AC-3
Формат/Информация : Audio Coding 3
Расширение режима : CM (complete main)
Параметр Endianness формата : Big
Идентификатор кодека : 2000
Продолжительность : 2 ч. 8 м.
Вид битрейта : Постоянный
Битрейт : 448 Кбит/сек
Каналы : 6 каналов
Расположение каналов : Front: L C R, Side: L R, LFE
Частота : 48,0 КГц
Битовая глубина : 16 бит
Метод сжатия : С потерями
Размер потока : 412 Мбайт (18%)
Выравнивание : Разделение по промежуткам
Продолжительность промежутка : 42 мс. (1,00 видеокадр)
Время предзагрузки промежутка : 500 мс.
Общее
Полное имя : D:\Фильмы\Азиатские\Дотянуться до тебя\Reaching you.2010.HDRip.XviD.2200MB. rip by [Assassin's Creed]\Reaching you.2010.HDRip.XviD.2200MB. rip by [Assassin's Creed].Eng.ass
Размер файла : 135 Кбайт
Общее
Полное имя : D:\Фильмы\Азиатские\Дотянуться до тебя\Reaching you.2010.HDRip.XviD.2200MB. rip by [Assassin's Creed]\Reaching you.2010.HDRip.XviD.2200MB. rip by [Assassin's Creed].Rus.srt
Формат : SubRip
Размер файла : 114 Кбайт
Текст
Формат : SubRip
Метод сжатия : Без потерь
Скриншот c названием фильма Скриншоты
Скачать

Скачать торрент! От меня к тебе / Дотянуться до тебя / Reaching you / Kimi ni Todoke (Кумадзава Наото / Kumazawa Naoto) [2010, Япония, романтика, школа, комедия, HDRip] DVO (Green Tea) + original Jap + Sub (rus, eng)

Как скачивать? · Что такое торрент? · Рейтинг и ограничения

Сайт не распространяет и не хранит электронные версии произведений, а лишь предоставляет доступ к создаваемому пользователями каталогу ссылок на торрент-файлы, которые содержат только списки хеш-сумм

[Профиль] [ЛС]
Показать сообщения:    
Ответить на тему

Текущее время: Сегодня 17:16

Часовой пояс: GMT + 4



Вы не можете начинать темы
Вы не можете отвечать на сообщения
Вы не можете редактировать свои сообщения
Вы не можете удалять свои сообщения
Вы не можете голосовать в опросах
Вы не можете прикреплять файлы к сообщениям
Вы не можете скачивать файлы