Колючка / Innocent Thing / Thorn / Gashi (Ким Тэ Гюн / Kim Tae-Gyun) [2014, Южная Корея, триллер, драма, HDTVRip] DVO (DeadSno & den904)

Ответить на тему
 
Автор Сообщение

user ®

Стаж: 11 лет

Сообщений: 15151

Пост Пост: #1 от 15-Июн-2014 05:30

[Цитировать]

Колючка / Innocent Thing / Thorn / Gashi
Страна: Южная Корея
Жанр: триллер, драма
Год выпуска: 2014
Продолжительность: 01:58:08
Перевод: Любительский (двухголосый закадровый) DeadSno & den904
Cубтитры: нет
Режиссер: Ким Тэ Гюн / Kim Tae-Gyun
В ролях: Чжан Хёк, Чжо Бо А, Сон Ву Сон, Ли До А
Описание: Джун Ки — очень популярный учитель в средней школе. Его ученица Юн Ын, как и многие другие, влюбилась в своего педагога. Но, в отличии от своих сверстниц, Юн Ын не так проста. Она признается в любви своему учителю, но мужчина отвергает ее, показывая безразличие к чувствам своей ученицы. Юн Ын, не остановившись на этом, решает сблизиться с женой любимого, чтобы стать ближе к нему..
Сэмпл: http://multi-up.com/980196
Качество видео: HDTVRip (Innocent.Thing.2014.720p.KOR.HDRip.H264-CJCONTENTS)
Формат видео: AVI
Видео: XviD, 746 kbps, 640 х 288 pixels, 23.976 fps
Аудио: MP3, 128 Kbps, 2 channels, 48.0 KHz

MediaInfo
General
Complete name : D:\Innocent.Thing.2014.HDTVRip.745 Mb.avi
Format : AVI
Format/Info : Audio Video Interleave
File size : 746 MiB
Duration : 1h 58mn
Overall bit rate : 883 Kbps
Writing application : VirtualDubMod 1.5.10.3 | www.virtualdub-fr.org || (build 2550/release)
Writing library : VirtualDubMod build 2550/release
Video
ID : 0
Format : MPEG-4 Visual
Format profile : Advanced Simple@L5
Format settings, BVOP : Yes
Format settings, QPel : No
Format settings, GMC : No warppoints
Format settings, Matrix : Custom
Codec ID : XVID
Codec ID/Hint : XviD
Duration : 1h 58mn
Bit rate : 746 Kbps
Width : 640 pixels
Height : 288 pixels
Display aspect ratio : 2.222
Frame rate : 23.976 fps
Color space : YUV
Chroma subsampling : 4:2:0
Bit depth : 8 bits
Scan type : Progressive
Compression mode : Lossy
Bits/(Pixel*Frame) : 0.169
Stream size : 630 MiB (84%)
Writing library : XviD 73
Audio
ID : 1
Format : MPEG Audio
Format version : Version 1
Format profile : Layer 3
Codec ID : 55
Codec ID/Hint : MP3
Duration : 1h 58mn
Bit rate mode : Constant
Bit rate : 128 Kbps
Channel(s) : 2 channels
Sampling rate : 48.0 KHz
Compression mode : Lossy
Stream size : 108 MiB (14%)
Alignment : Aligned on interleaves
Interleave, duration : 42 ms (1.00 video frame)
Interleave, preload duration : 504 ms
Writing library : LAME3.99r
Encoding settings : -m s -V 4 -q 2 -lowpass 17 -b 128
Скриншот c названием фильма Скриншоты
Скачать

Скачать торрент! Колючка / Innocent Thing / Thorn / Gashi (Ким Тэ Гюн / Kim Tae-Gyun) [2014, Южная Корея, триллер, драма, HDTVRip] DVO (DeadSno & den904)

Как скачивать? · Что такое торрент? · Рейтинг и ограничения

Сайт не распространяет и не хранит электронные версии произведений, а лишь предоставляет доступ к создаваемому пользователями каталогу ссылок на торрент-файлы, которые содержат только списки хеш-сумм

[Профиль] [ЛС]
Показать сообщения:    
Ответить на тему

Текущее время: Сегодня 10:01

Часовой пояс: GMT + 4



Вы не можете начинать темы
Вы не можете отвечать на сообщения
Вы не можете редактировать свои сообщения
Вы не можете удалять свои сообщения
Вы не можете голосовать в опросах
Вы не можете прикреплять файлы к сообщениям
Вы не можете скачивать файлы