Наручники / The Handcuff / Hand Cuffs / Shou kou (У Ма / Wu Ma) [1979, Гонконг, боевик, боевые искусства, VHSRip] VO (Виктор Береговых)

Ответить на тему
 
Автор Сообщение

user ®

Стаж: 11 лет

Сообщений: 15151

Пост Пост: #1 от 15-Июн-2014 05:30

[Цитировать]

Наручники / The Handcuff / Hand Cuffs / Shou kou
Страна: Гонконг
Жанр: боевик, боевые искусства
Год выпуска: 1979
Продолжительность: 01:35:54
Перевод: Одноголосый закадровый Виктор Береговых
Cубтитры: нет
Режиссер: У Ма / Wu Ma
В ролях: Майкл Чан, Нора Мяо, Ка Лёнь, Полин Вон, Тон Чин, Филлип Чан, Ло Лье, Чен Кэйин, Лук Чюнь, Чжэн Канъе
Описание: История о противостоянии полицейского Сю и наёмного убийцы по прозвищу Зелёный Дракон. Когда-то они были лучшими друзьями и Сю обязан Дракону жизнью. Теперь их пути разошлись, и они стали по разные стороны закона. Сможет ли инспектор полиции забыть о правовом долге и вернуть долг другу...(В. Береговых)
Благодарность: За перевод, озвучивание и описание благодарность выражается Виктору Береговых (Jet).
Сэмпл: http://multi-up.com/980231
Качество видео: VHSRip
Формат видео: AVI
Видео: 656x496 (1.32:1), 25 fps, XviD build 50 ~1902 kbps avg, 0.23 bit/pixel
Аудио: 48 kHz, MPEG Layer 3, 2 ch, ~128.00 kbps avg
MediaInfo
Format : AVI
Format/Info : Audio Video Interleave
File size : 1,37 Гбайт
Duration : 1 ч. 35 м.
Overall bit rate : 2040 Кбит/сек
Writing application : VirtualDubMod 1.5.10.3 | www.virtualdub-fr.org || (build 2550/release)
Writing library : VirtualDubMod build 2550/release
Видео
ID : 0
Format : MPEG-4 Visual
Format profile : Advanced Simple@L5
Format settings, BVOP : 2
Format settings, QPel : Нет
Format settings, GMC : Без точки перехода
Format settings, Matrix : Default (MPEG)
Codec ID : XVID
Codec ID/Hint : XviD
Duration : 1 ч. 35 м.
Bit rate : 1902 Кбит/сек
Width : 656 пикселей
Height : 496 пикселей
Display aspect ratio : 4:3
Frame rate : 25,000 кадров/сек
Color space : YUV
Chroma subsampling : 4:2:0
Bit depth : 8 бит
Scan type : Прогрессивная
Compression mode : С потерями
Bits/(Pixel*Frame) : 0.234
Stream size : 1,27 Гбайт (93%)
Writing library : XviD 1.2.1 (UTC 2008-12-04)
Аудио
ID : 1
Format : MPEG Audio
Format version : Version 1
Format profile : Layer 3
Codec ID : 55
Codec ID/Hint : MP3
Duration : 1 ч. 35 м.
Bit rate mode : Постоянный
Bit rate : 128 Кбит/сек
Channel(s) : 2 канала
Sampling rate : 48,0 КГц
Compression mode : С потерями
Stream size : 87,8 Мбайт (6%)
Alignment : Соединение по промежуткам
Interleave, duration : 40 мс. (1,00 видеокадр)
Interleave, preload duration : 504 мс.
Writing library : LAME3.99r
Encoding settings : -m s -V 4 -q 2 -lowpass 17 -b 128
Скриншот c названием фильма Скриншоты
Скачать

Скачать торрент! Наручники / The Handcuff / Hand Cuffs / Shou kou (У Ма / Wu Ma) [1979, Гонконг, боевик, боевые искусства, VHSRip] VO (Виктор Береговых)

Как скачивать? · Что такое торрент? · Рейтинг и ограничения

Сайт не распространяет и не хранит электронные версии произведений, а лишь предоставляет доступ к создаваемому пользователями каталогу ссылок на торрент-файлы, которые содержат только списки хеш-сумм

[Профиль] [ЛС]
Показать сообщения:    
Ответить на тему

Текущее время: Сегодня 06:40

Часовой пояс: GMT + 4



Вы не можете начинать темы
Вы не можете отвечать на сообщения
Вы не можете редактировать свои сообщения
Вы не можете удалять свои сообщения
Вы не можете голосовать в опросах
Вы не можете прикреплять файлы к сообщениям
Вы не можете скачивать файлы