От меня к тебе / Дотянуться до тебя / Reaching you / Kimi ni Todoke (Кумадзава Наото / Kumazawa Naoto) [2010, Япония, романтика, школа, комедия, HDRip] DVO [Green Tea]

Ответить на тему
 
Автор Сообщение

user ®

Стаж: 11 лет

Сообщений: 15151

Пост Пост: #1 от 15-Июн-2014 05:30

[Цитировать]

От меня к тебе / Дотянуться до тебя / Reaching you / Kimi ni Todoke- -Страна: Япония
Жанр: романтика, школа, комедия
Год выпуска: 2010
Продолжительность: 02:08:34-Перевод: Любительский (двухголосый закадровый) [Green Tea]-Cубтитры: нет
Оригинальная аудиодорожка: нет
Режиссер: Кумадзава Наото / Kumazawa Naoto
В ролях: Микако Табе, Харума Миура, Мисако Ренбуцу, Хару Аояма, Рёка Ихара, Масанобу Кацумура, Миреи Киритани, Нацуна Ватанабэ, Ясуко Томита
Описание: 15-летняя Савако Куронума — милая и мягкая девушка, желающая людям только добра. Но судьба и родители наградили ее внешностью героини пресловутого «Звонка», и одноклассники считают, что даже столкнуться с «Садако» — дурная примета, а стоит заговорить с ней — будешь проклят навеки. Скромность и застенчивость Савако тоже делу не помогают. Так бы и пропала девушка в старшей школе, если бы не Сёта Кадзэхая — всеобщий любимец, простой и открытый парень. Он первым начал разговаривать с Савако, которая, конечно же, давно питала к нему сильное чувство. За Кадзэхаей понемногу последовала вся его компания, и вот бывшей «золушке» уже волей-неволей пришлось тянуться за ними и открываться людям, при этом демонстрируя неожиданные таланты, вовсе не те, на которые намекали досужие сплетницы.
Релиз от -
Качество видео: HDRip
Формат видео: AVI
Видео: MPEG-4 Visual at 1429 Кбит/сек; 704 x 384 (1.833) at 23.976 fps
Аудио: AC-3 at 192 Кбит/сек; 2 канала, 48,0 КГц
Автор -
MediaInfo
Общее
Полное имя : D:\Фильмы\Азиатские\Дотянуться до тебя\Reaching you.2010.HDRip.XviD.1400MB. rip by [Assassin's Creed].avi
Формат : AVI
Формат/Информация : Audio Video Interleave
Размер файла : 1,46 Гбайт
Продолжительность : 2 ч. 8 м.
Общий поток : 1630 Кбит/сек
Программа кодирования : VirtualDubMod 1.5.10.3 | www.virtualdub-fr.org || (build 2550/release)
Библиотека кодирования : VirtualDubMod build 2550/release
Видео
Идентификатор : 0
Формат : MPEG-4 Visual
Профиль формата : Advanced Simple@L5
Параметр BVOP формата : 1
Параметр QPel формата : Нет
Параметр GMC формата : Без точки перехода
Параметр матрицы формата : Default (MPEG)
Идентификатор кодека : XVID
Идентификатор кодека/Подсказка : XviD
Продолжительность : 2 ч. 8 м.
Битрейт : 1429 Кбит/сек
Ширина : 704 пикселя
Высота : 384 пикселя
Соотношение сторон : 1,85:1
Частота кадров : 23,976 кадра/сек
Цветовое пространство : YUV
Субдискретизация насыщенности : 4:2:0
Битовая глубина : 8 бит
Тип развёртки : Прогрессивная
Метод сжатия : С потерями
Бит/(Пиксели*Кадры) : 0.220
Размер потока : 1,28 Гбайт (88%)
Библиотека кодирования : XviD 1.2.1 (UTC 2008-12-04)
Аудио
Идентификатор : 1
Формат : AC-3
Формат/Информация : Audio Coding 3
Расширение режима : CM (complete main)
Параметр Endianness формата : Big
Идентификатор кодека : 2000
Продолжительность : 2 ч. 8 м.
Вид битрейта : Постоянный
Битрейт : 192 Кбит/сек
Каналы : 2 канала
Расположение каналов : Front: L R
Частота : 48,0 КГц
Битовая глубина : 16 бит
Метод сжатия : С потерями
Размер потока : 177 Мбайт (12%)
Выравнивание : Разделение по промежуткам
Продолжительность промежутка : 42 мс. (1,00 видеокадр)
Время предзагрузки промежутка : 500 мс.
Скриншот c названием фильма Скриншоты
Скачать

Скачать торрент! От меня к тебе / Дотянуться до тебя / Reaching you / Kimi ni Todoke (Кумадзава Наото / Kumazawa Naoto) [2010, Япония, романтика, школа, комедия, HDRip] DVO [Green Tea]

Как скачивать? · Что такое торрент? · Рейтинг и ограничения

Сайт не распространяет и не хранит электронные версии произведений, а лишь предоставляет доступ к создаваемому пользователями каталогу ссылок на торрент-файлы, которые содержат только списки хеш-сумм

[Профиль] [ЛС]
Показать сообщения:    
Ответить на тему

Текущее время: Сегодня 10:06

Часовой пояс: GMT + 4



Вы не можете начинать темы
Вы не можете отвечать на сообщения
Вы не можете редактировать свои сообщения
Вы не можете удалять свои сообщения
Вы не можете голосовать в опросах
Вы не можете прикреплять файлы к сообщениям
Вы не можете скачивать файлы