Подозреваемый / The Suspect / Yong-eui-ja (Шин-юн Вон / Shin-yeon Won) [2013, Корея Южная, боевик, триллер, HDRip] DVO (О. Гринтиева и К. Романов) + Sub Rus, Eng + Original Kor

Ответить на тему
 
Автор Сообщение

user ®

Стаж: 11 лет

Сообщений: 15151

Пост Пост: #1 от 15-Июн-2014 05:30

[Цитировать]

Подозреваемый / The Suspect / Yong-eui-ja
Страна: Корея Южная
Студия: Green Fish Pictures, Musa Productions, Showbox/Mediaplex
Жанр: боевик, триллер
Год выпуска: 2013
Продолжительность: 02:17:03
Перевод: Любительский (двухголосый закадровый) Ольга Гринтиева и Константин Романов
Cубтитры: русские, английские (srt)
Оригинальная аудиодорожка: корейский
Режиссер: Шин-юн Вон / Shin-yeon Won
В ролях: Гон Ю, Пак Хи Сун, Ю Да Ин, Чжо Сон Ха, Чо Чжэ Юн, Ли Дон Чжин
Описание: Северокорейский шпион, оказавшись покинутым своей страной, оседает в Южной Корее. Вскоре он становится главным подозреваемым в деле об убийстве генерального директора крупной корпорации. Теперь подозреваемому нужно докопаться до правды.
Сэмпл: http://multi-up.com/980279
Тип релиза: HDRip
Контейнер: MKV
Видео: XviD, 1627 Kbps, 720 х304 pixels, 24.000 fps
Аудио 1: AC3, 192 Kbps, 2 channels, Front: L R, 48.0 KHz, 16 bits
Аудио 2: AC-3, 448 Kbps, 6 channels, Front: L C R, Side: L R, LFE, 48.0 KHz, 16 bits

MediaInfo
General
Complete name : D:\kirovtorrent\The.Suspect.2013\The.Suspect.2013.HDRip.2.18Gb.avi
Format : AVI
Format/Info : Audio Video Interleave
Format profile : OpenDML
File size : 2.19 GiB
Duration : 2h 17mn
Overall bit rate : 2 285 Kbps
Writing application : VirtualDubMod 1.5.10.3 | www.virtualdub-fr.org || (build 2550/release)
Writing library : VirtualDubMod build 2550/release
Video
ID : 0
Format : MPEG-4 Visual
Format profile : Advanced Simple@L5
Format settings, BVOP : Yes
Format settings, QPel : No
Format settings, GMC : No warppoints
Format settings, Matrix : Default (MPEG)
Codec ID : XVID
Codec ID/Hint : XviD
Duration : 2h 17mn
Bit rate : 1 627 Kbps
Width : 720 pixels
Height : 304 pixels
Display aspect ratio : 2.35:1
Frame rate : 24.000 fps
Color space : YUV
Chroma subsampling : 4:2:0
Bit depth : 8 bits
Scan type : Progressive
Compression mode : Lossy
Bits/(Pixel*Frame) : 0.310
Stream size : 1.56 GiB (71%)
Writing library : XviD 73
Audio #1
ID : 1
Format : AC-3
Format/Info : Audio Coding 3
Mode extension : CM (complete main)
Format settings, Endianness : Big
Codec ID : 2000
Duration : 2h 17mn
Bit rate mode : Constant
Bit rate : 192 Kbps
Channel(s) : 2 channels
Channel positions : Front: L R
Sampling rate : 48.0 KHz
Bit depth : 16 bits
Compression mode : Lossy
Stream size : 188 MiB (8%)
Alignment : Split accross interleaves
Interleave, duration : 42 ms (1.00 video frame)
Interleave, preload duration : 500 ms
Audio #2
ID : 2
Format : AC-3
Format/Info : Audio Coding 3
Mode extension : CM (complete main)
Format settings, Endianness : Big
Codec ID : 2000
Duration : 2h 17mn
Bit rate mode : Constant
Bit rate : 448 Kbps
Channel(s) : 6 channels
Channel positions : Front: L C R, Side: L R, LFE
Sampling rate : 48.0 KHz
Bit depth : 16 bits
Compression mode : Lossy
Stream size : 439 MiB (20%)
Alignment : Split accross interleaves
Interleave, duration : 42 ms (1.00 video frame)
Interleave, preload duration : 500 ms
Скриншоты
Скачать

Скачать торрент! Подозреваемый / The Suspect / Yong-eui-ja (Шин-юн Вон / Shin-yeon Won) [2013, Корея Южная, боевик, триллер, HDRip] DVO (О. Гринтиева и К. Романов) + Sub Rus, Eng + Original Kor

Как скачивать? · Что такое торрент? · Рейтинг и ограничения

Сайт не распространяет и не хранит электронные версии произведений, а лишь предоставляет доступ к создаваемому пользователями каталогу ссылок на торрент-файлы, которые содержат только списки хеш-сумм

[Профиль] [ЛС]
Показать сообщения:    
Ответить на тему

Текущее время: Сегодня 00:14

Часовой пояс: GMT + 4



Вы не можете начинать темы
Вы не можете отвечать на сообщения
Вы не можете редактировать свои сообщения
Вы не можете удалять свои сообщения
Вы не можете голосовать в опросах
Вы не можете прикреплять файлы к сообщениям
Вы не можете скачивать файлы