Поймай меня / Укради мое сердце / Catch me / Steal my heart / Kaechimi (Хён Чон Ли / Hyun-Jong Lee) [2013, Южная Корея, мелодрама, комедия, HDRip] DVO (GREEN TEA) + original Kor Sub (rus, eng)

Ответить на тему
 
Автор Сообщение

user ®

Стаж: 13 лет

Сообщений: 15071

Пост Пост: #1 от 15-Июн-2014 05:30

[Цитировать]

Поймай меня / Укради мое сердце / Catch me / Steal my heart / Kaechimi- -Страна: Южная Корея
Жанр: мелодрама, комедия
Год выпуска: 2013
Продолжительность: 01:54:57-Перевод: Любительский (двухголосый закадровый) [GREEN TEA]-Cубтитры: русские (ASS), английские (SRT) [отдельно]
Оригинальная аудиодорожка: корейский
Режиссер: Хён Чон Ли / Hyun-Jong Lee
В ролях: Чжу Вон, Ким А Чжун, Пэк До Бин, Пак Чхоль Мин, Пэ Сон У...
Описание: Хо Тэ гений криминального сыска. В настоящий момент он работает над поимкой серийного преступника. С его помощью детективы выследили убийцу, но в самый ответственный момент подозреваемого сбивает ниоткуда взявшийся автомобиль и уезжает в неизвестном направлении. Хо Тэ уверяет всех, что поймает горе-водителя, который разрушил все планы взять преступника живым и скрылся с места происшествия. Хо Тэ работает над этим делом и выясняет, что водителем машины была Юн Джин Сук. Он проникает в ее квартиру и лицом к лицу сталкивает с ней. Хо Тэ в шоке, увидев, что эта женщина – Ли Сук Джа – его первая школьная любовь. Вскоре Хо Тэ узнает, что она еще и профессиональный вор-домушник.
Релиз от -
Сэмпл: http://multi-up.com/980319
Качество видео: HDRip
Формат видео: AVI
Видео: MPEG-4 Visual at 2066 Кбит/сек; 720 x 304 (2.368) at 23.976 fps
Аудио: AC-3 at 192 Кбит/сек; 2 канала, 48,0 КГц [DVO]
Аудио: AC-3 at 448 Кбит/сек; 6 каналов, 48,0 КГц [Kor]
Автор -
MediaInfo
Общее
Полное имя : D:\Фильмы\Азиатские\Поймай меня\Catch me.2013.HDRip.XviD.2200MB. rip by [Assassin's Creed]\Catch me.2013.HDRip.XviD.2200MB. rip by [Assassin's Creed].avi
Формат : AVI
Формат/Информация : Audio Video Interleave
Профиль формата : OpenDML
Размер файла : 2,19 Гбайт
Продолжительность : 1 ч. 54 м.
Общий поток : 2724 Кбит/сек
Программа кодирования : VirtualDubMod 1.5.10.2 (build 2540/release)
Библиотека кодирования : VirtualDubMod build 2540/release
Видео
Идентификатор : 0
Формат : MPEG-4 Visual
Профиль формата : Advanced Simple@L5
Параметр BVOP формата : 1
Параметр QPel формата : Нет
Параметр GMC формата : Без точки перехода
Параметр матрицы формата : Default (MPEG)
Идентификатор кодека : XVID
Идентификатор кодека/Подсказка : XviD
Продолжительность : 1 ч. 54 м.
Битрейт : 2066 Кбит/сек
Ширина : 720 пикселей
Высота : 304 пикселя
Соотношение сторон : 2,35:1
Частота кадров : 23,976 кадра/сек
Цветовое пространство : YUV
Субдискретизация насыщенности : 4:2:0
Битовая глубина : 8 бит
Тип развёртки : Прогрессивная
Метод сжатия : С потерями
Бит/(Пиксели*Кадры) : 0.394
Размер потока : 1,66 Гбайт (76%)
Библиотека кодирования : XviD 1.2.1 (UTC 2008-12-04)
Аудио #1
Идентификатор : 1
Формат : AC-3
Формат/Информация : Audio Coding 3
Расширение режима : CM (complete main)
Параметр Endianness формата : Big
Идентификатор кодека : 2000
Продолжительность : 1 ч. 54 м.
Вид битрейта : Постоянный
Битрейт : 192 Кбит/сек
Каналы : 2 канала
Расположение каналов : Front: L R
Частота : 48,0 КГц
Битовая глубина : 16 бит
Метод сжатия : С потерями
Размер потока : 158 Мбайт (7%)
Выравнивание : Разделение по промежуткам
Продолжительность промежутка : 42 мс. (1,00 видеокадр)
Время предзагрузки промежутка : 500 мс.
Аудио #2
Идентификатор : 2
Формат : AC-3
Формат/Информация : Audio Coding 3
Расширение режима : CM (complete main)
Параметр Endianness формата : Big
Идентификатор кодека : 2000
Продолжительность : 1 ч. 54 м.
Вид битрейта : Постоянный
Битрейт : 448 Кбит/сек
Каналы : 6 каналов
Расположение каналов : Front: L C R, Side: L R, LFE
Частота : 48,0 КГц
Битовая глубина : 16 бит
Метод сжатия : С потерями
Размер потока : 368 Мбайт (16%)
Выравнивание : Разделение по промежуткам
Продолжительность промежутка : 42 мс. (1,00 видеокадр)
Время предзагрузки промежутка : 500 мс.
Общее
Полное имя : D:\Фильмы\Азиатские\Поймай меня\Catch me.2013.HDRip.XviD.2200MB. rip by [Assassin's Creed]\Catch me.2013.HDRip.XviD.2200MB. rip by [Assassin's Creed].Eng.srt
Формат : SubRip
Размер файла : 81,4 Кбайт
Текст
Формат : SubRip
Метод сжатия : Без потерь
Общее
Полное имя : D:\Фильмы\Азиатские\Поймай меня\Catch me.2013.HDRip.XviD.2200MB. rip by [Assassin's Creed]\Catch me.2013.HDRip.XviD.2200MB. rip by [Assassin's Creed].Rus.ass
Размер файла : 155 Кбайт
Скриншот c названием фильма Скриншоты
Скачать

Скачать торрент! Поймай меня / Укради мое сердце / Catch me / Steal my heart / Kaechimi (Хён Чон Ли / Hyun-Jong Lee) [2013, Южная Корея, мелодрама, комедия, HDRip] DVO (GREEN TEA) + original Kor Sub (rus, eng)

Как скачивать? · Что такое торрент? · Рейтинг и ограничения

Сайт не распространяет и не хранит электронные версии произведений, а лишь предоставляет доступ к создаваемому пользователями каталогу ссылок на торрент-файлы, которые содержат только списки хеш-сумм

[Профиль] [ЛС]
Показать сообщения:    
Ответить на тему

Текущее время: Сегодня 21:52

Часовой пояс: GMT + 4



Вы не можете начинать темы
Вы не можете отвечать на сообщения
Вы не можете редактировать свои сообщения
Вы не можете удалять свои сообщения
Вы не можете голосовать в опросах
Вы не можете прикреплять файлы к сообщениям
Вы не можете скачивать файлы