Исцеление / De Behandeling / The Treatment (Ханс Херботс / Hans Herbots) [2014, Бельгия, Триллер, драма, DVDRip] Sub Rus

Ответить на тему
 
Автор Сообщение

user ®

Стаж: 7 лет 7 месяцев

Сообщений: 20008

Пост Пост: #1 от 15-Июн-2014 05:30

[Цитировать]

Исцеление / De Behandeling / The Treatment
Страна: Бельгия
Жанр: Триллер, драма
Год выпуска: 2014
Продолжительность: 02:05:25
Перевод: Субтитры: creo140
Cубтитры: русские
Оригинальная аудиодорожка: голландский
Режиссер: Ганс (Ханс) Херботс / Hans Herbots
В ролях: Герт Ван Рампелберг, Ина Жер, Йохан ван Ассхе, Лаура Верлинден, Ингрид де Вос, Патриция Берти
Описание:Фильм является экранизацией одноименного фильма Мо Хайдера. Старшему инспектору полиции Нику Kафмейеру приходится расследовать исчезновение, а потом убийство мальчика, ставшего жертвой изнасилования. При этом, сложившиеся обстоятельства, напоминают Нику о пропаже в детстве его младшего брата Бьорна, чья судьба до сих пор не выяснена. Ему предлагается на выбор узнать всё о Бьорне или поймать маньяка...
Доп. информация: http://www.imdb.com/title/tt3089778/
http://www.kinopoisk.ru/film/789350/
Сэмпл:http://multi-up.com/980225
Качество видео: DVDRip-Xvid
Формат видео: AVI
Видео: Xvid 720x304 25fps
Аудио: Dolby AC3 48000Hz stereo 224kbps
Формат субтитров: softsub (SRT)
Фрагмент субтитров
326
00:36:09,560 --> 00:36:12,791
Бьёрн убежал с заднего двора,
через кусты.
327
00:36:13,880 --> 00:36:16,713
Плетинкс был главным
подозреваемым с самого начала.
328
00:36:17,320 --> 00:36:21,313
Они арестовали его,
но были вынуждены отпустить его.
329
00:36:21,520 --> 00:36:23,909
Мне кажется, что он просто наслаждается,
издеваясь надо мной
330
00:36:24,120 --> 00:36:26,114
Я уже не раз говорила тебе.
331
00:36:26,120 --> 00:36:29,114
Продай это место,
пока ничего не случилось.
332
00:36:29,960 --> 00:36:32,599
В последнее время
это происходит всё чаще.
333
00:36:34,360 --> 00:36:37,334
Он как-то связан с делом Симонса.
334
00:36:37,360 --> 00:36:39,434
Он что-то знает
или как то замешан в этом.
335
00:36:40,080 --> 00:36:42,471
Эта сеть педофилов, как грязь.
336
00:36:42,480 --> 00:36:44,471
Она распространяется даже под землёй.
337
00:36:44,720 --> 00:36:46,199
Это объединяет всех извращенцев.
338
00:36:46,400 --> 00:36:50,188
Плетинкс уже в годах.
Сколько ему, 65?
339
00:36:50,600 --> 00:36:53,319
В наши дни, это не имеет значения.
У них есть виагра.
MediaInfo
Format : AVI
Format/Info : Audio Video Interleave
File size : 1.56 GiB
Duration : 2h 5mn
Overall bit rate : 1 776 Kbps
Writing application : VirtualDubMod 1.5.10.3 | www.virtualdub-fr.org || (build 2550/release)
Writing library : VirtualDubMod build 2550/release
Video
ID : 0
Format : MPEG-4 Visual
Codec ID : XVID
Codec ID/Hint : XviD
Duration : 2h 5mn
Bit rate : 1 473 Kbps
Width : 720 pixels
Height : 304 pixels
Display aspect ratio : 2.35:1
Frame rate : 25.000 fps
Color space : YUV
Chroma subsampling : 4:2:0
Compression mode : Lossy
Bits/(Pixel*Frame) : 0.269
Stream size : 1.29 GiB (83%)
Audio
ID : 1
Format : AC-3
Format/Info : Audio Coding 3
Codec ID : 2000
Duration : 2h 5mn
Bit rate mode : Constant
Bit rate : 224 Kbps
Channel count : 2 channels
Sampling rate : 48.0 KHz
Compression mode : Lossy
Stream size : 201 MiB (13%)
Alignment : Aligned on interleaves
Скриншот c названием фильма Скриншоты
Скачать

Скачать торрент!

Как скачивать? · Что такое торрент? · Рейтинг и ограничения

Сайт не распространяет и не хранит электронные версии произведений, а лишь предоставляет доступ к создаваемому пользователями каталогу ссылок на торрент-файлы, которые содержат только списки хеш-сумм

[Профиль] [ЛС]
Показать сообщения:    
Ответить на тему

Текущее время: Сегодня 08:13

Часовой пояс: GMT + 4



Вы не можете начинать темы
Вы не можете отвечать на сообщения
Вы не можете редактировать свои сообщения
Вы не можете удалять свои сообщения
Вы не можете голосовать в опросах
Вы не можете прикреплять файлы к сообщениям
Вы не можете скачивать файлы