История про Ричарда, Милорда и прекрасную Жар-птицу (Нино Ахвледиани) [1997, драма, DVB]

Ответить на тему
 
Автор Сообщение

user ®

Стаж: 7 лет 7 месяцев

Сообщений: 20008

Пост Пост: #1 от 14-Июн-2014 17:40

[Цитировать]

История про Ричарда, Милорда и прекрасную Жар-птицу
Жанр: драма
Год выпуска: 1997
Продолжительность: 01:26:59
Режиссёр: Нино Ахвледиани
В ролях: Михаил Вассербаум, Роман Дюдин, Кира Крейлис-Петрова, Анатолий Равикович, Александр Демьяненко, Георгий Штиль, Игорь Головин, Анатолий Сливников, Юрий Гальцев, Семён Стругачёв, Мамука Кикалейшвили, Сергей Жигунов, Владимир Яворский, Марина Могилевская, Елена Сафонова, Анатолий Смольников
Описание: Дмитрий Каменцев, тридцатилетний руководитель детского театра, находит кейс с миллионом долларов. Герой объявляет по телевидению в прямом эфире о своей находке и обещает вернуть деньги владельцу. Дмитрия начинают осаждать жулики и проходимцы.
Доп. информация: Запись потока *.ts со спутника Eutelsat Hot Bird 13B/C/D, 13° в.д., ремукс в *.mpg программой VideoReDo.
Качество видео: DVB
Формат видео: MPEG-РS
Сэмпл: http://multi-up.com/980198
Видео: MPEG Video, 704x576 (4 : 3), 25,000 кадров/сек, 2124 Кбит/сек
Аудио: MPEG Audio, 48,0 КГц, 192 Кбит/сек, 2 канала
Сравнение
[url=http://***/forum/viewtopic.php?t=1064352]http://***/forum/viewtopic.php?t=1064352[/url]
http://screenshotcomparison.com/comparison/78997/
MediaInfo
Общее
Полное имя : D:\MPG\ИСТОРИЯ ПРО РИЧАРДА МИЛОРДА И ПРЕКРАСНУЮ ЖАР-ПТИЦУ (Nashe Kino).mpg
Формат : MPEG-PS
Размер файла : 1,48 Гбайт
Продолжительность : 1 ч. 27 м.
Режим общего битрейта : Переменный
Общий поток : 2428 Кбит/сек
Видео
Идентификатор : 224 (0xE0)
Формат : MPEG Video
Версия формата : Version 2
Профиль формата : Main@Main
Параметр BVOP формата : Да
Параметр матрицы формата : Выборочная
Параметр GOP формата : M=3, N=45
Продолжительность : 1 ч. 27 м.
Вид битрейта : Переменный
Битрейт : 2124 Кбит/сек
Максимальный битрейт : 15,0 Мбит/сек
Ширина : 704 пикселя
Высота : 576 пикселей
Соотношение сторон : 4:3
Частота кадров : 25,000 кадров/сек
Стандарт вещания : PAL
Цветовое пространство : YUV
Субдискретизация насыщенности : 4:2:0
Битовая глубина : 8 бит
Тип развёртки : Чересстрочная
Порядок развёртки : Верхнее поле первое
Метод сжатия : С потерями
Бит/(Пиксели*Кадры) : 0.209
Временной код первого кадра : 00:00:00:00
Оригинал временного кода : Group of pictures header
Размер потока : 1,29 Гбайт (87%)
Аудио #1
Идентификатор : 192 (0xC0)
Формат : MPEG Audio
Версия формата : Version 1
Профиль формата : Layer 2
Продолжительность : 1 ч. 26 м.
Вид битрейта : Постоянный
Битрейт : 192 Кбит/сек
Каналы : 2 канала
Частота : 48,0 КГц
Метод сжатия : С потерями
Задержка видео : 9 мс.
Размер потока : 119 Мбайт (8%)
Аудио #2
Идентификатор : 193 (0xC1)
Формат : MPEG Audio
Версия формата : Version 1
Профиль формата : Layer 2
Продолжительность : 1 ч. 26 м.
Вид битрейта : Постоянный
Битрейт : 64,0 Кбит/сек
Каналы : 2 канала
Частота : 48,0 КГц
Метод сжатия : С потерями
Задержка видео : 9 мс.
Размер потока : 39,8 Мбайт (3%)
Скриншот c названием фильма Скриншоты
Скачать

Скачать торрент!

Как скачивать? · Что такое торрент? · Рейтинг и ограничения

Сайт не распространяет и не хранит электронные версии произведений, а лишь предоставляет доступ к создаваемому пользователями каталогу ссылок на торрент-файлы, которые содержат только списки хеш-сумм

[Профиль] [ЛС]
Показать сообщения:    
Ответить на тему

Текущее время: Сегодня 00:37

Часовой пояс: GMT + 4



Вы не можете начинать темы
Вы не можете отвечать на сообщения
Вы не можете редактировать свои сообщения
Вы не можете удалять свои сообщения
Вы не можете голосовать в опросах
Вы не можете прикреплять файлы к сообщениям
Вы не можете скачивать файлы