Русалка (Анна Меликян) [2007, Драма, Режиссерская версия, DVDRip]

Ответить на тему
 
Автор Сообщение

user ®

Стаж: 7 лет 7 месяцев

Сообщений: 20008

Пост Пост: #1 от 13-Июн-2014 03:00

[Цитировать]

Русалка
(Режиссерская версия)
Жанр: Драма
Год выпуска: 2007
Продолжительность: 01:54:22
Режиссёр: Анна Меликян
В ролях: Мария Шалаева, Евгений Цыганов, Мария Сокова, Анастасия Донцова, Вероника Скугина, Наталья Рычкова, Ирина Скриниченко, Игорь Яцко, Нана Кикнадзе, Артур Смольянинов, Нелли Уварова, Игорь Урываев, Марина Николаева, Сергей Юркин, Инга Сметанина, Иван Николаев, Сергей Алдонин, Сергей Чирков, Алексей Гущин, Антон Ескин, Максим Коновалов, Виктор Перевалов, Альбина Евтушевская, Юрий Яфаев, Наталья Смирнова, Виталий Лукошкин, Владимир Плахтий, Томас Моцкус
Описание: Алиса - хроническая неудачница. Но в одном ей сказочно повезло - Алиса умеет говорить с морем и обладает даром влиять на происходящие в мире события. Достигнув 18-летия, Алиса решает попытать счастья в Москве. В столице Алису поджидают новые неприятности и первая в жизни влюбленность… без взаимности.
Могут ли волшебные способности Алисы помочь ей завладеть сердцем Саши, или она вновь потерпит неудачу? Сгоряча пожелав Саше смерти, Алиса осознает, что ее воля будет исполнена. Теперь Алиса готова на все, чтобы спасти Сашу, даже ценой собственной жизни.

Сэмпл: https://yadi.sk/d/W-eRbqF3TDZuc
Качество видео: DVDRip
Формат видео: AVI
Видео: 640x336 (1.90:1), 25 fps, XviD Final 1.0.3 (build 37) ~1248 kbps
Аудио: 48 kHz, AC3 Dolby Digital, 3/2 (L,C,R,l,r) + LFE ch, ~448.00 kbps
MediaInfo
Формат : AVI
Формат/Информация : Audio Video Interleave
Размер файла : 1,36 Гбайт
Продолжительность : 1 ч. 54 м.
Общий поток : 1707 Кбит/сек
Программа кодирования : VirtualDubMod 1.5.10.2 (build 2540/release)
Библиотека кодирования : VirtualDubMod build 2540/release
Видео
Идентификатор : 0
Формат : MPEG-4 Visual
Профиль формата : Advanced Simple@L5
Параметр BVOP формата : 2
Параметр QPel формата : Нет
Параметр GMC формата : Без точки перехода
Параметр матрицы формата : Default (MPEG)
Режим смешивания : Сжатый битовый поток
Идентификатор кодека : XVID
Идентификатор кодека/Подсказка : XviD
Продолжительность : 1 ч. 54 м.
Битрейт : 1249 Кбит/сек
Ширина : 640 пикселей
Высота : 336 пикселей
Соотношение сторон : 1,905
Частота кадров : 25,000 кадров/сек
Цветовое пространство : YUV
Субдискретизация насыщенности : 4:2:0
Битовая глубина : 8 бит
Тип развёртки : Прогрессивная
Метод сжатия : С потерями
Бит/(Пиксели*Кадры) : 0.232
Размер потока : 1022 Мбайт (73%)
Библиотека кодирования : XviD 1.0.3 (UTC 2004-12-20)
Аудио
Идентификатор : 1
Формат : AC-3
Формат/Информация : Audio Coding 3
Расширение режима : CM (complete main)
Параметр Endianness формата : Big
Идентификатор кодека : 2000
Продолжительность : 1 ч. 54 м.
Вид битрейта : Постоянный
Битрейт : 448 Кбит/сек
Каналы : 6 каналов
Расположение каналов : Front: L C R, Side: L R, LFE
Частота : 48,0 КГц
Битовая глубина : 16 бит
Метод сжатия : С потерями
Размер потока : 366 Мбайт (26%)
Выравнивание : Разделение по промежуткам
Продолжительность промежутка : 40 мс. (1,00 видеокадр)
Время предзагрузки промежутка : 500 мс.
Скриншоты
Скачать

Скачать торрент!

Как скачивать? · Что такое торрент? · Рейтинг и ограничения

Сайт не распространяет и не хранит электронные версии произведений, а лишь предоставляет доступ к создаваемому пользователями каталогу ссылок на торрент-файлы, которые содержат только списки хеш-сумм

[Профиль] [ЛС]
Показать сообщения:    
Ответить на тему

Текущее время: Сегодня 20:08

Часовой пояс: GMT + 4



Вы не можете начинать темы
Вы не можете отвечать на сообщения
Вы не можете редактировать свои сообщения
Вы не можете удалять свои сообщения
Вы не можете голосовать в опросах
Вы не можете прикреплять файлы к сообщениям
Вы не можете скачивать файлы