Железный рыцарь 2 / Ironclad: Battle for Blood (Джонатан Инглиш / Jonathan English) [2014, Великобритания, боевик, приключения, WEBRip] Dub (Звук с TS)

Ответить на тему
 
Автор Сообщение

user ®

Стаж: 7 лет 7 месяцев

Сообщений: 20008

Пост Пост: #1 от 13-Июн-2014 03:00

[Цитировать]

Железный рыцарь 2 / Ironclad: Battle for Blood
Страна: Великобритания
Жанр: боевик, приключения
Год выпуска: 2014
Продолжительность: 01:40:38
Перевод: Профессиональный (дублированный) Звук с TS
Cубтитры: нет
Режиссер: Джонатан Инглиш / Jonathan English
В ролях: Мишель Фэйрли, Роксанна МакКи, Дэниэл Уэбб, Рози Дэй, Twinnie Lee Moore, Том Остин, Энди Бекуив, Дэвид Ринтул, Предраг Бьелак, Дэвид Каве
Описание: Главный герой, выживший после Великой осады Рочестерского замка, охраняет свой народ от кельтских захватчиков.
Сэмпл: http://multi-up.com/979861
Качество видео: WEBRip
Формат видео: AVI
Видео: MPEG4, XviD, 720x304 (2.35:1), 25.000 fps, 1 804 Kbps (0.330 bit/pixel)
Аудио: MP3, 44.1 KHz, 2 ch, 128 Kbps, CBR
MediaInfo
Общее
Полное имя : K:\Jeleznyy.rycar.2.Dt.WEBRip.1400MB.avi
Формат : AVI
Формат/Информация : Audio Video Interleave
Размер файла : 1,36 Гбайт
Продолжительность : 1 ч. 40 м.
Общий поток : 1942 Кбит/сек
Программа кодирования : VirtualDubMod 1.5.10.3 | www.virtualdub-fr.org || (build 2550/release)
Библиотека кодирования : VirtualDubMod build 2550/release
Видео
Идентификатор : 0
Формат : MPEG-4 Visual
Профиль формата : Advanced Simple@L5
Параметр BVOP формата : 2
Параметр QPel формата : Нет
Параметр GMC формата : Без точки перехода
Параметр матрицы формата : Выборочная
Идентификатор кодека : XVID
Идентификатор кодека/Подсказка : XviD
Продолжительность : 1 ч. 40 м.
Битрейт : 1804 Кбит/сек
Ширина : 720 пикселей
Высота : 304 пикселя
Соотношение сторон : 2,35:1
Частота кадров : 25,000 кадров/сек
Цветовое пространство : YUV
Субдискретизация насыщенности : 4:2:0
Битовая глубина : 8 бит
Тип развёртки : Прогрессивная
Метод сжатия : С потерями
Бит/(Пиксели*Кадры) : 0.330
Размер потока : 1,27 Гбайт (93%)
Библиотека кодирования : XviD 1.2.1 (UTC 2008-12-04)
Аудио
Идентификатор : 1
Формат : MPEG Audio
Версия формата : Version 1
Профиль формата : Layer 3
Идентификатор кодека : 55
Идентификатор кодека/Подсказка : MP3
Продолжительность : 1 ч. 40 м.
Вид битрейта : Постоянный
Битрейт : 128 Кбит/сек
Каналы : 2 канала
Частота : 44,1 КГц
Метод сжатия : С потерями
Размер потока : 92,1 Мбайт (7%)
Выравнивание : Разделение по промежуткам
Продолжительность промежутка : 40 мс. (1,00 видеокадр)
Время предзагрузки промежутка : 500 мс.
Скриншоты
Скачать

Скачать торрент!

Как скачивать? · Что такое торрент? · Рейтинг и ограничения

Сайт не распространяет и не хранит электронные версии произведений, а лишь предоставляет доступ к создаваемому пользователями каталогу ссылок на торрент-файлы, которые содержат только списки хеш-сумм

[Профиль] [ЛС]
Показать сообщения:    
Ответить на тему

Текущее время: Сегодня 22:13

Часовой пояс: GMT + 4



Вы не можете начинать темы
Вы не можете отвечать на сообщения
Вы не можете редактировать свои сообщения
Вы не можете удалять свои сообщения
Вы не можете голосовать в опросах
Вы не можете прикреплять файлы к сообщениям
Вы не можете скачивать файлы