Кадры / The Internship (Шон Леви / Shawn Levy) [2013, США, комедия, BDRemux 1080p] [Unrated Cut] Dub + Dub Ukr + Original Eng + Sub Rus, Ukr, Eng

Ответить на тему
 
Автор Сообщение

user ®

Стаж: 7 лет 7 месяцев

Сообщений: 20008

Пост Пост: #1 от 12-Июн-2014 20:40

[Цитировать]

Кадры / The Internship- Страна: США
Жанр: комедия
Год выпуска: 2013
Продолжительность: 02:05:01
Перевод:

  • Профессиональный (дублированный)
    Cубтитры: русские, украинские, английские
    Оригинальная аудиодорожка: английский-Режиссер: Шон Леви / Shawn Levy
    В ролях: Винс Вон, Оуэн Уилсон, Роуз Бирн, Макс Мингелла, Аасиф Мандви, Джош Бренер, Дилан О’Брайэн, Тия Сиркар, Тобит Рафаэль, Джош Гад.
    Описание: Билли и Ник всю свою жизнь занимались прямыми продажами и стали настоящими профессионалами в своем деле. Однако прогресс не стоит на месте, и с появлением интернет-магазинов прямые продажи стали просто не нужны. Их компания начинает терпеть убытки и попросту закрывается, а друзья остаются без работы. Однако парни не отчаиваются и начинают искать работу в интернете. Им повезло, и у них появилась прекрасная возможность устроиться в компанию Google, но для этого им необходимо пройти тщательный отбор. На стажировку были отобраны лучшие студенты из самых престижных вузов страны. Билли и Нику придется очень сильно потрудиться, что бы переплюнуть юных компьютерных гениев и попасть в число счастливчиков, которым и будет предоставлена постоянная работа...-Тип релиза: BDRemux 1080p
    Контейнер: MKV | Sample
    Видео: 1920x1080 (16:9), 23.976 fps, x264@L4.1 ~23400 kbps avg
    Аудио 1: Russian 48 kHz, DTS, 3/2 (L,C,R,l,r) + LFE ch, 768.00 kbps avg | BD EUR
    Аудио 2: Ukrainian 48 kHz, DTS, 3/2 (L,C,R,l,r) + LFE ch, 768.00 kbps avg | BD EUR
    Аудио 3: English 48 kHz, DTS HD MA 5.1, 3746.00 kbps avg / 48 kHz, DTS Core 5.1, 1509.00 kbps avg | Original
    Аудио 4: English 48 kHz, AC3, 2/0 (L,R) ch, 224.00 kbps avg | Commentary

    Скриншоты
Медиаинфо
Общее
Формат : Matroska
Версия формата : Version 4 / Version 2
Размер файла : 25,3 Гбайт
Продолжительность : 2 ч. 5 м.
Режим общего битрейта : Переменный
Общий поток : 29,0 Мбит/сек
Название фильма : The Internship 2013 Unrated Cut
Дата кодирования : UTC 2014-06-10 17:39:33
Программа кодирования : mkvmerge v6.1.0 ('Old Devil') built on Mar 4 2013 09:10:42
Библиотека кодирования : libebml v1.3.0 + libmatroska v1.4.0
Видео
Идентификатор : 1
Формат : AVC
Формат/Информация : Advanced Video Codec
Профиль формата : High@L4.1
Параметр CABAC формата : Да
Параметр ReFrames формата : 2 кадра
Идентификатор кодека : V_MPEG4/ISO/AVC
Продолжительность : 2 ч. 5 м.
Вид битрейта : Переменный
Ширина : 1920 пикселей
Высота : 1080 пикселей
Соотношение сторон : 16:9
Режим частоты кадров : Постоянный
Частота кадров : 23,976 кадра/сек
Цветовое пространство : YUV
Субдискретизация насыщенности : 4:2:0
Битовая глубина : 8 бит
Тип развёртки : Прогрессивная
Заголовок : Blu-ray Remux
Язык : English
Default : Да
Forced : Нет
Аудио #1
Идентификатор : 2
Формат : DTS
Формат/Информация : Digital Theater Systems
Режим : 16
Параметр Endianness формата : Big
Идентификатор кодека : A_DTS
Продолжительность : 2 ч. 5 м.
Вид битрейта : Постоянный
Битрейт : 768 Кбит/сек
Каналы : 6 каналов
Расположение каналов : Front: L C R, Side: L R, LFE
Частота : 48,0 КГц
Битовая глубина : 24 бит
Метод сжатия : С потерями
Размер потока : 687 Мбайт (3%)
Заголовок : BD EUR
Язык : Russian
Default : Да
Forced : Нет
Аудио #2
Идентификатор : 3
Формат : DTS
Формат/Информация : Digital Theater Systems
Режим : 16
Параметр Endianness формата : Big
Идентификатор кодека : A_DTS
Продолжительность : 2 ч. 5 м.
Вид битрейта : Постоянный
Битрейт : 768 Кбит/сек
Каналы : 6 каналов
Расположение каналов : Front: L C R, Side: L R, LFE
Частота : 48,0 КГц
Битовая глубина : 24 бит
Метод сжатия : С потерями
Размер потока : 687 Мбайт (3%)
Заголовок : BD EUR
Язык : Ukrainian
Default : Нет
Forced : Нет
Аудио #3
Идентификатор : 4
Формат : DTS
Формат/Информация : Digital Theater Systems
Профиль формата : MA / Core
Режим : 16
Параметр Endianness формата : Big
Идентификатор кодека : A_DTS
Продолжительность : 2 ч. 5 м.
Вид битрейта : Переменный
Битрейт : Неизвестно / 1509 Кбит/сек
Каналы : 6 каналов
Расположение каналов : Front: L C R, Side: L R, LFE
Частота : 48,0 КГц
Битовая глубина : 24 бит
Метод сжатия : Без потерь / Lossy
Заголовок : Original
Язык : English
Default : Нет
Forced : Нет
Аудио #4
Идентификатор : 5
Формат : AC-3
Формат/Информация : Audio Coding 3
Расширение режима : CM (complete main)
Параметр Endianness формата : Big
Идентификатор кодека : A_AC3
Продолжительность : 2 ч. 5 м.
Вид битрейта : Постоянный
Битрейт : 224 Кбит/сек
Каналы : 2 канала
Расположение каналов : Front: L R
Частота : 48,0 КГц
Битовая глубина : 16 бит
Метод сжатия : С потерями
Размер потока : 200 Мбайт (1%)
Заголовок : Commentary
Язык : English
Default : Нет
Forced : Нет
Текст #1
Идентификатор : 6
Формат : UTF-8
Идентификатор кодека : S_TEXT/UTF8
Идентификатор кодека/Информация : UTF-8 Plain Text
Заголовок : Forced
Язык : Russian
Default : Да
Forced : Нет
Текст #2
Идентификатор : 7
Формат : UTF-8
Идентификатор кодека : S_TEXT/UTF8
Идентификатор кодека/Информация : UTF-8 Plain Text
Заголовок : Full
Язык : Russian
Default : Нет
Forced : Нет
Текст #3
Идентификатор : 8
Формат : UTF-8
Идентификатор кодека : S_TEXT/UTF8
Идентификатор кодека/Информация : UTF-8 Plain Text
Заголовок : Full
Язык : Ukrainian
Default : Нет
Forced : Нет
Текст #4
Идентификатор : 9
Формат : UTF-8
Идентификатор кодека : S_TEXT/UTF8
Идентификатор кодека/Информация : UTF-8 Plain Text
Заголовок : Full
Язык : English
Default : Нет
Forced : Нет
Текст #5
Идентификатор : 10
Формат : UTF-8
Идентификатор кодека : S_TEXT/UTF8
Идентификатор кодека/Информация : UTF-8 Plain Text
Заголовок : Full SDH
Язык : English
Default : Нет
Forced : Нет
Текст #6
Идентификатор : 11
Формат : UTF-8
Идентификатор кодека : S_TEXT/UTF8
Идентификатор кодека/Информация : UTF-8 Plain Text
Заголовок : Full SDH Colored
Язык : English
Default : Нет
Forced : Нет
Меню
00:00:00.000 : en:00:00:00.000
00:05:28.036 : en:00:05:28.036
00:07:50.428 : en:00:07:50.428
00:14:21.569 : en:00:14:21.569
00:19:40.387 : en:00:19:40.387
00:25:58.932 : en:00:25:58.932
00:28:59.780 : en:00:28:59.780
00:32:37.372 : en:00:32:37.372
00:35:04.769 : en:00:35:04.769
00:36:19.344 : en:00:36:19.344
00:41:52.009 : en:00:41:52.009
00:44:34.922 : en:00:44:34.922
00:48:04.840 : en:00:48:04.840
00:50:37.576 : en:00:50:37.576
00:58:27.754 : en:00:58:27.754
01:02:17.776 : en:01:02:17.776
01:06:08.798 : en:01:06:08.798
01:11:12.852 : en:01:11:12.852
01:14:02.646 : en:01:14:02.646
01:15:46.917 : en:01:15:46.917
01:18:54.438 : en:01:18:54.438
01:21:27.299 : en:01:21:27.299
01:24:11.630 : en:01:24:11.630
01:26:07.078 : en:01:26:07.078
01:27:57.731 : en:01:27:57.731
01:29:37.497 : en:01:29:37.497
01:31:39.911 : en:01:31:39.911
01:37:15.788 : en:01:37:15.788
01:42:32.938 : en:01:42:32.938
01:48:12.819 : en:01:48:12.819
01:54:18.810 : en:01:54:18.810
01:57:37.634 : en:01:57:37.634
Скачать

Скачать торрент!

Как скачивать? · Что такое торрент? · Рейтинг и ограничения

Сайт не распространяет и не хранит электронные версии произведений, а лишь предоставляет доступ к создаваемому пользователями каталогу ссылок на торрент-файлы, которые содержат только списки хеш-сумм

[Профиль] [ЛС]
Показать сообщения:    
Ответить на тему

Текущее время: Сегодня 04:03

Часовой пояс: GMT + 4



Вы не можете начинать темы
Вы не можете отвечать на сообщения
Вы не можете редактировать свои сообщения
Вы не можете удалять свои сообщения
Вы не можете голосовать в опросах
Вы не можете прикреплять файлы к сообщениям
Вы не можете скачивать файлы