Извратная маска / Маска извращенца / Трусонюх / Хентай Камен / HK Hentai Kamen (Юити Фукуда / Yuuichi Fukuda) [2013, Япония, комедия, боевик, комикс, HDRip-AVC] VO (den904) + Original JPN + Subs (Rus, Eng, Ger)

Ответить на тему
 
Автор Сообщение

user ®

Стаж: 13 лет

Сообщений: 15071

Пост Пост: #1 от 12-Июн-2014 17:30

[Цитировать]

Извратная маска / Маска извращенца / Трусонюх / Хентай Камен / HK Hentai Kamen- -Страна: Япония
Жанр: комедия, боевик, комикс
Год выпуска: 2013
Продолжительность: 01:45:33-Перевод: Одноголосый закадровый [den904]-Cубтитры: русские, английские, немецкие
Оригинальная аудиодорожка: японская-Режиссер: Юити Фукуда / Yuuichi Fukuda-В ролях: Рёхэй Судзуки, Сюнсукэ Дайто, Наруси Икеда, Нана Катасе, Цуёси Муро, Шун Огури, Ёсинори Окада, Джиро Сато, Фумика Симидзу, Такаши Цукамото...-Описание: Ученик средней школы Сикидзо Кёсуки является самым талантливым членом клуба кэмпо. Его покойный отец был детективом, и парень разделяет сильное чувство правосудия свего отца. Однажды, он спасает от хулиганов девушку по имени Химено Айко, в которую влюбляется с первого взгляда, но сбегает неузнанным ею. Когда при ограблении банка группа преступников взяла в заложники Айко, Кёсуке снова кидается спасти девушку, а чтобы не быть узнанным преступниками, парню надо скрыть лицо. Но, когда он случайно, вместо обычной маски, надевает на голову женские трусики, то с ним случается трансформация. Ведь он смог пробудить 100% скрытого потенциала своего тела и стать супер героем. Это необычная трансформация была передана ему на генном уровне от его родителей (а ведь семейка та еще: отец - мазохист, а мать - садистка). Кёсуке использует свою силу "Маски извращенца", чтобы победить преступников и сохранить любимую. Однако, парень не знает, что его неприятности только начались...-Семпл--Качество видео: HDRip-AVC
Формат видео: MKV
Видео: H264, 1012x568, 23,976 fps, 1780 Kbps
Аудио RUS: AC-3 at 192 Кбит/сек; 2 канала, 48,0 КГц
Аудио JAP: AC-3 at 192 Кбит/сек; 2 канала, 48,0 КГц - отдельным файлом-MediaInfo
Format                                   : Matroska
Format version                           : Version 4 / Version 2
File size                                : 1.45 GiB
Duration                                 : 1h 45mn
Overall bit rate                         : 1 972 Kbps
Movie name                               : Трусонюх / HK Hentai Kamen (2013)
Encoded date                             : UTC 2014-06-11 11:11:02
Writing application                      : mkvmerge v6.8.0 ('Theme for Great Cities') 32bit built on Mar  2 2014 21:27:07
Writing library                          : libebml v1.3.0 + libmatroska v1.4.1
Video
ID                                       : 1
Format                                   : AVC
Format/Info                              : Advanced Video Codec
Format profile                           : High@L4.1
Format settings, CABAC                   : Yes
Format settings, ReFrames                : 12 frames
Codec ID                                 : V_MPEG4/ISO/AVC
Duration                                 : 1h 45mn
Bit rate                                 : 1 780 Kbps
Width                                    : 1 012 pixels
Height                                   : 568 pixels
Display aspect ratio                     : 16:9
Frame rate mode                          : Constant
Frame rate                               : 23.976 fps
Color space                              : YUV
Chroma subsampling                       : 4:2:0
Bit depth                                : 8 bits
Scan type                                : Progressive
Bits/(Pixel*Frame)                       : 0.129
Stream size                              : 1.28 GiB (88%)
Title                                    : ds by X-Kira
Writing library                          : x264 core 138 r2358 9e941d1
Encoding settings                        : cabac=1 / ref=12 / deblock=1:-2:-1 / analyse=0x3:0x113 / me=umh / subme=9 / psy=1 / psy_rd=1.00:0.15 / mixed_ref=1 / me_range=48 / chroma_me=1 / trellis=2 / 8x8dct=1 / cqm=0 / deadzone=21,11 / fast_pskip=1 / chroma_qp_offset=-3 / threads=6 / lookahead_threads=1 / sliced_threads=0 / nr=0 / decimate=1 / interlaced=0 / bluray_compat=0 / constrained_intra=0 / bframes=9 / b_pyramid=2 / b_adapt=2 / b_bias=0 / direct=1 / weightb=1 / open_gop=0 / weightp=2 / keyint=240 / keyint_min=23 / scenecut=40 / intra_refresh=0 / rc_lookahead=40 / rc=2pass / mbtree=1 / bitrate=1780 / ratetol=1.0 / qcomp=0.60 / qpmin=10 / qpmax=51 / qpstep=4 / cplxblur=20.0 / qblur=0.5 / vbv_maxrate=14000 / vbv_bufsize=14000 / nal_hrd=none / ip_ratio=1.40 / aq=1:1.00
Language                                 : Japanese
Default                                  : Yes
Forced                                   : No
Audio
ID                                       : 2
Format                                   : AC-3
Format/Info                              : Audio Coding 3
Mode extension                           : CM (complete main)
Format settings, Endianness              : Big
Codec ID                                 : A_AC3
Duration                                 : 1h 45mn
Bit rate mode                            : Constant
Bit rate                                 : 192 Kbps
Channel(s)                               : 2 channels
Channel positions                        : Front: L R
Sampling rate                            : 48.0 KHz
Bit depth                                : 16 bits
Compression mode                         : Lossy
Stream size                              : 145 MiB (10%)
Title                                    : VO (den904)
Language                                 : Russian
Default                                  : Yes
Forced                                   : Yes
Text #1
ID                                       : 3
Format                                   : UTF-8
Codec ID                                 : S_TEXT/UTF8
Codec ID/Info                            : UTF-8 Plain Text
Language                                 : Russian
Default                                  : No
Forced                                   : No
Text #2
ID                                       : 4
Format                                   : UTF-8
Codec ID                                 : S_TEXT/UTF8
Codec ID/Info                            : UTF-8 Plain Text
Language                                 : English
Default                                  : No
Forced                                   : No
Text #3
ID                                       : 5
Format                                   : UTF-8
Codec ID                                 : S_TEXT/UTF8
Codec ID/Info                            : UTF-8 Plain Text
Language                                 : German
Default                                  : No
Forced                                   : No
Menu
00:00:00.000                             : en:00:00:00.000
00:05:08.308                             : en:00:05:08.308
00:10:37.637                             : en:00:10:37.637
00:23:00.379                             : en:00:23:00.379
00:33:05.984                             : en:00:33:05.984
00:41:33.491                             : en:00:41:33.491
00:50:12.009                             : en:00:50:12.009
01:06:07.964                             : en:01:06:07.964
01:22:30.946                             : en:01:22:30.946
01:35:35.730                             : en:01:35:35.730
01:41:10.064                             : en:01:41:10.064

-
Скриншоты
Скачать

Скачать торрент! Извратная маска / Маска извращенца / Трусонюх / Хентай Камен / HK Hentai Kamen (Юити Фукуда / Yuuichi Fukuda) [2013, Япония, комедия, боевик, комикс, HDRip-AVC] VO (den904) + Original JPN + Subs (Rus, Eng, Ger)

Как скачивать? · Что такое торрент? · Рейтинг и ограничения

Сайт не распространяет и не хранит электронные версии произведений, а лишь предоставляет доступ к создаваемому пользователями каталогу ссылок на торрент-файлы, которые содержат только списки хеш-сумм

[Профиль] [ЛС]
Показать сообщения:    
Ответить на тему

Текущее время: Сегодня 21:31

Часовой пояс: GMT + 4



Вы не можете начинать темы
Вы не можете отвечать на сообщения
Вы не можете редактировать свои сообщения
Вы не можете удалять свои сообщения
Вы не можете голосовать в опросах
Вы не можете прикреплять файлы к сообщениям
Вы не можете скачивать файлы