Она / Her (Спайк Джонс / Spike Jonze) [2013, США, мелодрама, драма, фантастика, BDRip 720p] Dub (LINE) + Sub Rus + Original Eng

Ответить на тему
 
Автор Сообщение

user ®

Стаж: 7 лет 7 месяцев

Сообщений: 20008

Пост Пост: #1 от 12-Июн-2014 17:30

[Цитировать]

Она / Her
Страна: США
Жанр: мелодрама, драма, фантастика
Год выпуска: 2013
Продолжительность: 02:05:50
Перевод: Профессиональный (дублированный) LINE
Cубтитры: русские
Оригинальная аудиодорожка: английский
Режиссер: Спайк Джонс / Spike Jonze
В ролях: Хоакин Феникс, Эми Адамс, Руни Мара, Оливия Уайлд, Скарлетт Йоханссон, Линн А. Фридман, Лиза Рени Питтс, Гейб Гомез, Крис Прэтт, Артт Батлер, Мэй Линдстрём, Билл Хейдер, Кристен Уиг, Брайан Джонсон, Мэтт Летчер, Спайк Джонс
Описание: Теодор Туомбли — молодой писатель, который очень сильно переживает развод. Он и его супруга были хорошей семьей: преодолевали вместе множество препятствий, переживали трудные времена и радовались каждому счастливому моменту. Но в один миг всего этого не стало, и Теодор потерял смысл в своей жизни. Друзья всеми силами пытаются вытащить его из депрессии, знакомя с молоденькими симпатичными девушками, но Теодор оказывается не готов к новым отношениям. В один прекрасный момент он покупает новейшую операционную систему, искусственный интеллект которой максимально приближен к человеческому, и с этого момента его жизнь меняется самым кардинальным образом. Ежедневное общение с Самантой возрождает в нем желание жить, строить планы на будущее, испытывать радость...
Доп. информация:
Сэмпл: http://sendfile.su/989536
Качество видео: BDRip 720p [Она / Her (2013) BDRemux 1080p. Чистый звук.rutor]
Формат видео: MKV
Видео: AVC, 1280 x 688 (1,85:1), 6331 kbps, 23,976 fps, 0.300 bpp
Аудио: AC3, 2ch, 48 kHz, 192 kbps, 16 bit
Аудио 2: AC3, 6ch, 48 kHz, 448 kbps, 16 bit
Формат субтитров: softsub (SRT)
MediaInfo
Уникальный идентификатор : 176746766050894645317036041294832474913 (0x84F8305DC9E9B57C811E562B1DB01B21)
Полное имя : F:\Films\Rip 3\Her 720.mkv
Формат : Matroska
Версия формата : Version 2
Размер файла : 6,12 Гбайт
Продолжительность : 2 ч. 5 м.
Общий поток : 6966 Кбит/сек
Дата кодирования : UTC 2014-06-11 11:00:46
Программа кодирования : mkvmerge v6.9.1 ('Blue Panther') 32bit built on Apr 18 2014 18:15:44
Библиотека кодирования : libebml v1.3.0 + libmatroska v1.4.1
Видео
Идентификатор : 1
Формат : AVC
Формат/Информация : Advanced Video Codec
Профиль формата : High@L4.1
Параметр CABAC формата : Да
Параметр ReFrames формата : 8 кадров
Идентификатор кодека : V_MPEG4/ISO/AVC
Продолжительность : 2 ч. 5 м.
Битрейт : 6331 Кбит/сек
Ширина : 1280 пикселей
Высота : 688 пикселей
Соотношение сторон : 1,85:1
Соотношение сторон в оригинале : 1,85:1
Режим частоты кадров : Постоянный
Частота кадров : 23,976 кадра/сек
Цветовое пространство : YUV
Субдискретизация насыщенности : 4:2:0
Битовая глубина : 8 бит
Тип развёртки : Прогрессивная
Бит/(Пиксели*Кадры) : 0.300
Размер потока : 5,44 Гбайт (89%)
Библиотека кодирования : x264 core 138 r2358 9e941d1
Настройки программы : cabac=1 / ref=8 / deblock=1:-2:-1 / analyse=0x3:0x133 / me=umh / subme=9 / psy=1 / psy_rd=1.00:0.05 / mixed_ref=0 / me_range=36 / chroma_me=1 / trellis=2 / 8x8dct=1 / cqm=0 / deadzone=21,11 / fast_pskip=0 / chroma_qp_offset=-3 / threads=3 / lookahead_threads=1 / sliced_threads=0 / nr=0 / decimate=0 / interlaced=0 / bluray_compat=0 / constrained_intra=0 / bframes=12 / b_pyramid=2 / b_adapt=2 / b_bias=0 / direct=1 / weightb=1 / open_gop=0 / weightp=2 / keyint=240 / keyint_min=23 / scenecut=40 / intra_refresh=0 / rc=2pass / mbtree=0 / bitrate=6331 / ratetol=1.0 / qcomp=0.70 / qpmin=10 / qpmax=69 / qpstep=4 / cplxblur=20.0 / qblur=0.5 / ip_ratio=1.40 / pb_ratio=1.30 / aq=1:1.00
Язык : English
Default : Да
Forced : Нет
Аудио #1
Идентификатор : 2
Формат : AC-3
Формат/Информация : Audio Coding 3
Расширение режима : CM (complete main)
Параметр Endianness формата : Big
Идентификатор кодека : A_AC3
Продолжительность : 2 ч. 5 м.
Вид битрейта : Постоянный
Битрейт : 192 Кбит/сек
Каналы : 2 канала
Расположение каналов : Front: L R
Частота : 48,0 КГц
Битовая глубина : 16 бит
Метод сжатия : С потерями
Размер потока : 173 Мбайт (3%)
Заголовок : Профессиональный (дублированный) LINE
Язык : Russian
Default : Да
Forced : Нет
Аудио #2
Идентификатор : 3
Формат : AC-3
Формат/Информация : Audio Coding 3
Расширение режима : CM (complete main)
Параметр Endianness формата : Big
Идентификатор кодека : A_AC3
Продолжительность : 2 ч. 5 м.
Вид битрейта : Постоянный
Битрейт : 448 Кбит/сек
Каналы : 6 каналов
Расположение каналов : Front: L C R, Side: L R, LFE
Частота : 48,0 КГц
Битовая глубина : 16 бит
Метод сжатия : С потерями
Размер потока : 403 Мбайт (6%)
Заголовок : английский
Default : Нет
Forced : Да
Текст
Идентификатор : 4
Формат : UTF-8
Идентификатор кодека : S_TEXT/UTF8
Идентификатор кодека/Информация : UTF-8 Plain Text
Заголовок : русские
Язык : Russian
Default : Нет
Forced : Да
Скриншот c названием фильма Скриншоты Возрастные ограничения
16+ : зрителям, достигшим 16 лет
Рейтинг МРАА: лицам до 17 лет обязательно присутствие взрослого
Награды и номинации
2013 — приз Римского кинофестиваля за лучшую женскую роль (С. Йоханссон)
2013 — 2 премии Национального совета кинокритиков США: лучший фильм года и лучшая режиссёрская работа (С. Джонз)
2014 — премия «Золотой глобус» за лучший сценарий (С. Джонз) и ещё 2 номинации: лучший фильм — комедия или мюзикл, лучшая мужская роль в комедии или мюзикле (Х. Феникс)
2014 — премия «Оскар» за лучший оригинальный сценарий (С. Джонз) и ещё 4 номинации: лучший фильм, лучшая музыка (У. Батлер, О. Паллетт), лучшая песня (The Moon Song), лучшая работа художника-постановщика (К. К. Барретт, Д. Сердена)
Скачать

Скачать торрент!

Как скачивать? · Что такое торрент? · Рейтинг и ограничения

Сайт не распространяет и не хранит электронные версии произведений, а лишь предоставляет доступ к создаваемому пользователями каталогу ссылок на торрент-файлы, которые содержат только списки хеш-сумм

[Профиль] [ЛС]
Показать сообщения:    
Ответить на тему

Текущее время: Сегодня 18:12

Часовой пояс: GMT + 4



Вы не можете начинать темы
Вы не можете отвечать на сообщения
Вы не можете редактировать свои сообщения
Вы не можете удалять свои сообщения
Вы не можете голосовать в опросах
Вы не можете прикреплять файлы к сообщениям
Вы не можете скачивать файлы