Джо / Joe (Дэвид Гордон Грин / David Gordon Green) [2013, США, драма, криминал, BDRip 1080p] MVO (R5) + DVO + Sub Rus, Eng + Original Eng

Ответить на тему
 
Автор Сообщение

user ®

Стаж: 7 лет 7 месяцев

Сообщений: 20008

Пост Пост: #1 от 12-Июн-2014 17:30

[Цитировать]

Джо / Joe
Страна: США
Студия: Dreambridge Films, Muskat Filmed Properties LLC и др.
Жанр: драма, криминал
Год выпуска: 2013
Продолжительность: 01:57:44
Перевод: Профессиональный (многоголосый закадровый) R5
Перевод 2: Любительский (двухголосый закадровый) Пиратская студия
Cубтитры: русские(R5), английские(full, SDH)
Оригинальная аудиодорожка: английский
Режиссер: Дэвид Гордон Грин / David Gordon Green
В ролях: Николас Кейдж, Тай Шеридан, Гари Поултер, Ронни Джин Блевинс, Адриэн Мишлер, Брайан Мейс, Адж Уилсон МакФол, Сью Рок, Хезер Кафка, Бренда Исаак Бут
Описание: В сонном городке на Миссисипи встретилось два одиноких человека. Юный Гари поставил крест на своем будущем, не зная как отвязаться от отца-алкоголика, бывший бандит Джо не желает вспоминать о прошлом. Неожиданно для самих себя они становятся друзьями.

Sample
Тип релиза: BDRip 1080p (видеоряд от Don)
Контейнер: MKV
Видео: MPEG4 AVC Video, H264, 16:9, 2.35:1, 1920x816, 23,976 fps, 17.4 Mbps
Аудио: Russian (AC3, 6 ch, 448 kbps, 16 bits, 48.0 KHz) - MVO R5
Аудио 2: Russian (AC3, 6 ch, 384 kbps, 16 bits, 48.0 KHz) - DVO
Аудио 3: English (DTS, 6 ch, 1509 kbps, 24 bits, 48.0 KHz) - оригинал
Аудио 4: English (AC3, 2 ch, 192 kbps, 16 bits, 48.0 KHz) - комментарии
Формат субтитров: softsub (SRT)
MediaInfo
General
Unique ID : 213714128350288506144057379745816825836 (0xA0C7D80BFB9C063D9B342EA9A736CFEC)
Complete name : L:\Джо.1013.BDRip.(1080p).mkv
Format : Matroska
Format version : Version 4 / Version 2
File size : 16.7 GiB
Duration : 1h 57mn
Overall bit rate : 20.3 Mbps
Encoded date : UTC 2014-06-12 01:16:24
Writing application : mkvmerge v6.1.0 ('Old Devil') built on Mar 2 2013 14:32:37
Writing library : libebml v1.3.0 + libmatroska v1.4.0
Video
ID : 1
Format : AVC
Format/Info : Advanced Video Codec
Format profile : High@L4.1
Format settings, CABAC : Yes
Format settings, ReFrames : 5 frames
Codec ID : V_MPEG4/ISO/AVC
Duration : 1h 57mn
Bit rate : 17.4 Mbps
Width : 1 920 pixels
Height : 816 pixels
Display aspect ratio : 2.35:1
Frame rate mode : Constant
Frame rate : 23.976 fps
Color space : YUV
Chroma subsampling : 4:2:0
Bit depth : 8 bits
Scan type : Progressive
Bits/(Pixel*Frame) : 0.463
Stream size : 14.3 GiB (86%)
Writing library : x264 core 142 r2431+42 c69a006 tMod [8-bit@all X86_64]
Encoding settings : cabac=1 / ref=5 / deblock=1:-3:-3 / analyse=0x3:0x133 / me=tesa / subme=10 / psy=1 / fade_compensate=0.00 / psy_rd=0.90:0.00 / mixed_ref=1 / me_range=24 / chroma_me=1 / trellis=2 / 8x8dct=1 / cqm=0 / deadzone=21,11 / fast_pskip=0 / chroma_qp_offset=-2 / threads=6 / lookahead_threads=1 / sliced_threads=0 / nr=0 / decimate=0 / interlaced=0 / bluray_compat=0 / constrained_intra=0 / fgo=0 / bframes=6 / b_pyramid=2 / b_adapt=2 / b_bias=0 / direct=3 / weightb=1 / open_gop=0 / weightp=2 / keyint=250 / keyint_min=23 / scenecut=40 / intra_refresh=0 / rc=crf / mbtree=0 / crf=17.0000 / qcomp=0.70 / qpmin=0:0:0 / qpmax=69:69:69 / qpstep=4 / ip_ratio=1.20 / pb_ratio=1.10 / aq=4:0.80 / aq-sensitivity=10.00 / aq-factor=1.00:1.00:1.00 / aq2=0 / aq3=0
Language : English
Default : Yes
Forced : No
Color primaries : BT.709
Transfer characteristics : BT.709
Matrix coefficients : BT.709
Audio #1
ID : 2
Format : AC-3
Format/Info : Audio Coding 3
Mode extension : CM (complete main)
Format settings, Endianness : Big
Codec ID : A_AC3
Duration : 1h 57mn
Bit rate mode : Constant
Bit rate : 448 Kbps
Channel count : 6 channels
Channel positions : Front: L C R, Side: L R, LFE
Sampling rate : 48.0 KHz
Bit depth : 16 bits
Compression mode : Lossy
Stream size : 377 MiB (2%)
Title : R5
Language : Russian
Default : Yes
Forced : No
Audio #2
ID : 3
Format : AC-3
Format/Info : Audio Coding 3
Mode extension : CM (complete main)
Format settings, Endianness : Big
Codec ID : A_AC3
Duration : 1h 57mn
Bit rate mode : Constant
Bit rate : 384 Kbps
Channel count : 6 channels
Channel positions : Front: L C R, Side: L R, LFE
Sampling rate : 48.0 KHz
Bit depth : 16 bits
Compression mode : Lossy
Stream size : 323 MiB (2%)
Title : Пиратская студия
Language : Russian
Default : No
Forced : No
Audio #3
ID : 4
Format : DTS
Format/Info : Digital Theater Systems
Mode : 16
Format settings, Endianness : Big
Codec ID : A_DTS
Duration : 1h 57mn
Bit rate mode : Constant
Bit rate : 1 509 Kbps
Channel count : 6 channels
Channel positions : Front: L C R, Side: L R, LFE
Sampling rate : 48.0 KHz
Bit depth : 24 bits
Compression mode : Lossy
Stream size : 1.24 GiB (7%)
Language : English
Default : No
Forced : No
Audio #4
ID : 5
Format : AC-3
Format/Info : Audio Coding 3
Mode extension : CM (complete main)
Format settings, Endianness : Big
Codec ID : A_AC3
Duration : 1h 57mn
Bit rate mode : Constant
Bit rate : 192 Kbps
Channel count : 2 channels
Channel positions : Front: L R
Sampling rate : 48.0 KHz
Bit depth : 16 bits
Compression mode : Lossy
Stream size : 162 MiB (1%)
Title : комментарии
Language : English
Default : No
Forced : No
Text #1
ID : 6
Format : UTF-8
Codec ID : S_TEXT/UTF8
Codec ID/Info : UTF-8 Plain Text
Language : Russian
Default : No
Forced : No
Text #2
ID : 7
Format : UTF-8
Codec ID : S_TEXT/UTF8
Codec ID/Info : UTF-8 Plain Text
Language : English
Default : No
Forced : No
Text #3
ID : 8
Format : UTF-8
Codec ID : S_TEXT/UTF8
Codec ID/Info : UTF-8 Plain Text
Title : SDH
Language : English
Default : No
Forced : No
Menu
00:00:00.000 : en:Chapter 01
00:07:15.352 : en:Chapter 02
00:15:04.737 : en:Chapter 03
00:22:57.626 : en:Chapter 04
00:30:28.410 : en:Chapter 05
00:36:18.259 : en:Chapter 06
00:45:06.078 : en:Chapter 07
00:51:36.135 : en:Chapter 08
00:58:00.268 : en:Chapter 09
01:06:51.925 : en:Chapter 10
01:15:03.416 : en:Chapter 11
01:21:47.861 : en:Chapter 12
01:29:49.217 : en:Chapter 13
01:36:16.020 : en:Chapter 14
01:44:49.074 : en:Chapter 15
01:52:03.759 : en:Chapter 16
Скриншоты
Скачать

Скачать торрент!

Как скачивать? · Что такое торрент? · Рейтинг и ограничения

Сайт не распространяет и не хранит электронные версии произведений, а лишь предоставляет доступ к создаваемому пользователями каталогу ссылок на торрент-файлы, которые содержат только списки хеш-сумм

[Профиль] [ЛС]
Показать сообщения:    
Ответить на тему

Текущее время: Сегодня 12:38

Часовой пояс: GMT + 4



Вы не можете начинать темы
Вы не можете отвечать на сообщения
Вы не можете редактировать свои сообщения
Вы не можете удалять свои сообщения
Вы не можете голосовать в опросах
Вы не можете прикреплять файлы к сообщениям
Вы не можете скачивать файлы