Кто он? / Yevadu (Вамси Пайдипалли / Vamsi Paidipally) [2014, Индия, драма, DVDRip] Sub Rus

Ответить на тему
 
Автор Сообщение

user ®

Стаж: 12 лет

Сообщений: 15092

Пост Пост: #1 от 11-Июн-2014 12:25

[Цитировать]

Кто он? / Yevadu
Страна: Индия
Жанр: драма
Год выпуска: 2014
Продолжительность: 02:48:52
Перевод: Субтитры
Cубтитры: русские
Оригинальная аудиодорожка: телугу
Перевод субтитров: Net и Wita
Риппер: randy23
Режиссер: Вамси Пайдипалли / Vamsi Paidipally
В ролях: Рам Чаран Тедж, Шрути Хасан, Эмми Джексон, Аллу Арджун, Каджал Аггарвал, Сай Кумар, Рахул Дев, Джаясудха, Шашанк
Описание: Приспешники матерого бандита, похотливого Виру-бхая рыскают по всему Визагу, разыскивая для него девушку Дипти. Но она влюблена в Сатью. Зная его вспыльчивый характер, Дипти уговаривает его уехать в Хайдарабад. На автобусной станции в Визаге они садятся в автобус. Это приведет к событиям, повлияющим на жизни не одного, и не двух, а десятков человек...
Сэмпл: http://multi-up.com/979539
Дополнительно. Для тех, кто будет брать релиз на другие ресурсы, убедительная просьба: сохраняйте оформление до буквы.
И настоятельно прошу самых наглых не вырезать имя переводчиков из субтитров.
Реализация рипа субтитрами через интернет-магазины не предусмотрена

Качество видео: DVDRip
Формат видео: AVI
Видео: XviD, 672х288, 2.35:1, 24.000 fps, 999 Kbps
Аудио: AC-3, 48.0 kHz, 224 Kbps, 6 channels, Original
Формат субтитров: hardsub (неотключаемые)
MediaInfo
General
Complete name : I:Yevadu (2014) - BDRip - XviD - AC3 - [DDR].avi
Format : AVI
Format/Info : Audio Video Interleave
File size : 1.45 GiB
Duration : 2h 48mn
Overall bit rate : 1 233 Kbps
Writing application : VirtualDubMod 1.5.10.2 (build 2542/release)
Writing library : VirtualDubMod build 2542/release
Video
ID : 0
Format : MPEG-4 Visual
Format profile : Advanced Simple@L5
Format settings, BVOP : Yes
Format settings, QPel : No
Format settings, GMC : No warppoints
Format settings, Matrix : Default (H.263)
Muxing mode : Packed bitstream
Codec ID : XVID
Codec ID/Hint : XviD
Duration : 2h 48mn
Bit rate : 999 Kbps
Width : 672 pixels
Height : 288 pixels
Display aspect ratio : 2.35:1
Frame rate : 24.000 fps
Color space : YUV
Chroma subsampling : 4:2:0
Bit depth : 8 bits
Scan type : Progressive
Bits/(Pixel*Frame) : 0.215
Stream size : 1.18 GiB (81%)
Writing library : XviD 1.2.1 (UTC 2008-12-04)
Audio
ID : 1
Format : AC-3
Format/Info : Audio Coding 3
Mode extension : CM (complete main)
Codec ID : 2000
Duration : 2h 48mn
Bit rate mode : Constant
Bit rate : 224 Kbps
Channel(s) : 6 channels
Channel positions : Front: L C R, Side: L R, LFE
Sampling rate : 48.0 KHz
Stream size : 271 MiB (18%)
Alignment : Split accross interleaves
Interleave, duration : 42 ms (1.00 video frame)
Interleave, preload duration : 500 ms
Скриншот c названием фильма Скриншоты
Скачать

Скачать торрент! Кто он? / Yevadu (Вамси Пайдипалли / Vamsi Paidipally) [2014, Индия, драма, DVDRip] Sub Rus

Как скачивать? · Что такое торрент? · Рейтинг и ограничения

Сайт не распространяет и не хранит электронные версии произведений, а лишь предоставляет доступ к создаваемому пользователями каталогу ссылок на торрент-файлы, которые содержат только списки хеш-сумм

[Профиль] [ЛС]
Показать сообщения:    
Ответить на тему

Текущее время: Сегодня 16:20

Часовой пояс: GMT + 4



Вы не можете начинать темы
Вы не можете отвечать на сообщения
Вы не можете редактировать свои сообщения
Вы не можете удалять свои сообщения
Вы не можете голосовать в опросах
Вы не можете прикреплять файлы к сообщениям
Вы не можете скачивать файлы