Ранчо Делюкс / Rancho Deluxe (Фрэнк Перри / Frank Perry) [1975, США, романтическая комедия, вестерн, HDTV 1080i] DVO (НТВ+) + Original Eng

Ответить на тему
 
Автор Сообщение

user ®

Стаж: 7 лет 7 месяцев

Сообщений: 20008

Пост Пост: #1 от 10-Июн-2014 22:00

[Цитировать]

Ранчо Делюкс / Rancho Deluxe
Страна: США
Студия: Elliott Kastner Productions
Жанр: романтическая комедия, вестерн
Год выпуска: 1975
Продолжительность: 01:27:47
Перевод: Профессиональный (двухголосый закадровый) НТВ+
Cубтитры: нет
Оригинальная аудиодорожка: английский
Режиссер: Фрэнк Перри / Frank Perry
В ролях: Джефф Бриджес, Сэм Уотерстон, Элизабет Эшли, Клифтон Джеймс, Слим Пикенс, Шарлин Даллас, Гарри Дин Стэнтон, Ричард Брайт, Патти Д'Арбанвиль, Мэгги Веллман
Описание: Вторая комедия Фрэнка Перри (после «Дневника сумасшедшей домохозяйки») недооцененный в должной мере анти-вестерн о современных скотоводах. Джек МакКи (Джефф Бриджес) и Сесил Колсон (Сэм Уотерстон) тянут лямку при помощи электрических пил, мощных винтовок и грузовичка пикап. Когда они крадут бычка у Джона Брауна (Клифтон Джеймс), новичка, продавшего прибыльный ресторан в Шенектэйди, чтобы стать ранчером-скотоводом в Монтане, сразу начались приключения. Брауну так скучно в этой новой жизни, что разнообразие, заключающееся в поимке этих двух воришек, превращается в одержимость. Его работники на ранчо (Хэрри Дин Стэнтон и Ричард Брайт) сами не вчера родились - вот они и заключают сделку с МакКи и Колсоном украсть у Брауна большую часть его скота, совершенно забыв о том факте, что пожилой «детектив» Хенри Биг (Слим Пикенс), которого Браун привлек к делу, и его «племянница» Лора (Шарлин Дэллас) далеко не такие бестолочи, какими кажутся. Сценарий написан автором романа Томасом МакГуэйном, и «Ранчо Делюкс» - это часто смешной до уморы взгляд на то, как широкие массы дают отпор ползучей индустриализации, которая началась еще в начале века, меняя лицо «старого Запада». (М. Иванов)
II Сэмпл II IMDB II
Тип релиза: HDTV 1080i
Контейнер: MKV
Видео: AVC 1920x1080 (16:9) 25.0fps Bit rate 7693Kbps
Аудио 1: MP2 48.0KHz 2ch 192 Kbps rus dvo
Аудио 2: AC3 48.0KHz 2ch 192 Kbps eng
MediaInfo
Общее
Уникальный идентификатор : 229465585208516079844162475952085163070 (0xACA176D43C0B4C2EBDA4C69B55A45C3E)
Полное имя : E:\torrent\Rancho Deluxe.1975.HDTV.1080i.mkv
Формат : Matroska
Версия формата : Version 4 / Version 2
Размер файла : 5,05 Гбайт
Продолжительность : 1 ч. 27 м.
Общий поток : 8241 Кбит/сек
Дата кодирования : UTC 2014-06-09 02:03:30
Программа кодирования : mkvmerge v6.9.1 ('Blue Panther') 32bit built on Apr 18 2014 18:15:44
Библиотека кодирования : libebml v1.3.0 + libmatroska v1.4.1
Видео
Идентификатор : 1
Формат : AVC
Формат/Информация : Advanced Video Codec
Профиль формата : High@L4.0
Параметр CABAC формата : Да
Параметр ReFrames формата : 3 кадра
Параметр GOP формата : M=4, N=32
Идентификатор кодека : V_MPEG4/ISO/AVC
Продолжительность : 1 ч. 27 м.
Битрейт : 7693 Кбит/сек
Ширина : 1920 пикселей
Высота : 1080 пикселей
Соотношение сторон : 16:9
Режим частоты кадров : Постоянный
Частота кадров : 25,000 кадров/сек
Стандарт вещания : Component
Цветовое пространство : YUV
Субдискретизация насыщенности : 4:2:0
Битовая глубина : 8 бит
Тип развёртки : Чересстрочная
Порядок развёртки : Верхнее поле первое
Бит/(Пиксели*Кадры) : 0.148
Размер потока : 4,72 Гбайт (93%)
Заголовок : Rancho Deluxe.1975.HDTV.1080i
Default : Да
Forced : Нет
Основные цвета : BT.709
Характеристики трансфера : BT.709
Коэффициенты матрицы : BT.709
Аудио #1
Идентификатор : 2
Формат : MPEG Audio
Версия формата : Version 1
Профиль формата : Layer 2
Идентификатор кодека : A_MPEG/L2
Идентификатор кодека/Подсказка : MP2
Продолжительность : 1 ч. 27 м.
Вид битрейта : Постоянный
Битрейт : 192 Кбит/сек
Каналы : 2 канала
Частота : 48,0 КГц
Метод сжатия : С потерями
Размер потока : 121 Мбайт (2%)
Заголовок : MP2_2ch_192Kbps_rus_dvo_NTV+
Язык : Russian
Default : Да
Forced : Нет
Аудио #2
Идентификатор : 3
Формат : AC-3
Формат/Информация : Audio Coding 3
Расширение режима : CM (complete main)
Параметр Endianness формата : Big
Идентификатор кодека : A_AC3
Продолжительность : 1 ч. 27 м.
Вид битрейта : Постоянный
Битрейт : 192 Кбит/сек
Каналы : 2 канала
Расположение каналов : Front: L R
Частота : 48,0 КГц
Битовая глубина : 16 бит
Метод сжатия : С потерями
Размер потока : 121 Мбайт (2%)
Заголовок : AC3_2ch_192Kbps_original eng
Язык : English
Default : Нет
Forced : Нет
Скриншот с названием фильма Скриншоты
Скачать

Скачать торрент!

Как скачивать? · Что такое торрент? · Рейтинг и ограничения

Сайт не распространяет и не хранит электронные версии произведений, а лишь предоставляет доступ к создаваемому пользователями каталогу ссылок на торрент-файлы, которые содержат только списки хеш-сумм

[Профиль] [ЛС]
Показать сообщения:    
Ответить на тему

Текущее время: Сегодня 21:19

Часовой пояс: GMT + 4



Вы не можете начинать темы
Вы не можете отвечать на сообщения
Вы не можете редактировать свои сообщения
Вы не можете удалять свои сообщения
Вы не можете голосовать в опросах
Вы не можете прикреплять файлы к сообщениям
Вы не можете скачивать файлы