Отель «Гранд Будапешт» / The Grand Budapest Hotel / The Grand Budapest Hotel (Уэс Андерсон / Wes Anderson) [2014, Великобритания, Германия, комедия, детектив, приключения, криминал, BDRip 1080p] Dub (BD CEE) + Subs + Original Eng

Ответить на тему
 
Автор Сообщение

user ®

Стаж: 7 лет 7 месяцев

Сообщений: 20008

Пост Пост: #1 от 10-Июн-2014 22:00

[Цитировать]

Отель «Гранд Будапешт» / The Grand Budapest Hotel- Страна: Великобритания, Германия
Студия: American Empirical Pictures
Жанр: комедия, детектив, приключения, криминал
Год выпуска: 2014
Продолжительность: 01:39:55-Перевод: Профессиональный (дублированный) BD CEE
Cубтитры: Rus (Надписи и т.д, BD), Ukr (BD), Eng (Надписи и т.д, Full, SDH), Dut, Fre ,Gre, Por.
Оригинальная аудиодорожка: английский-Режиссер: Уэс Андерсон / Wes Anderson
В ролях: Рэйф Файнс, Тони Револори, Сирша Ронан, Эдриан Броуди, Уиллем Дефо, Ф. Мюррэй Абрахам, Джуд Лоу, Эдвард Нортон, Джефф Голдблюм, Харви Кейтель
Описание: Фильм рассказывает об увлекательных приключениях легендарного консьержа Густава и его юного друга, портье Зеро Мустафы. Сотрудники гостиницы становятся свидетелями кражи и поисков бесценных картин эпохи Возрождения, борьбы за огромное состояние богатой семьи и… драматических изменений в Европе между двумя кровопролитными войнами XX века.
-Рип от DON
Сэмпл: sendfile→, rusfolder→
Тип релиза: BDRip 1080p
Контейнер: MKV
Видео: 1916 x 1036 (1.849), x264, crf 17.1 , L4.1, 23.976 fps, 12002 Kbps
Аудио: 48 kHz, DTS 5.1 - 768 kbps |Дубляж, BD CEE|
Аудио 2: 48 kHz, DTS 5.1 - 1536 kbps |Оригинал|
MediaInfo
Полное имя : The.Grand.Budapest.Hotel.2014.1080p.BluRay.DTS.x264-DON.Rus.Eng.mkv
Формат : Matroska
Версия формата : Version 4 / Version 2
Размер файла : 9.97 GiB
Продолжительность : 1h 39mn
Общий поток : 14.3 Mbps
Название фильма : Grand Budapest Hotel (2014) | Rip by DON
Дата кодирования : UTC 2014-06-09 18:39:38
Программа кодирования : mkvmerge v6.5.0 ('Isn't she lovely') built on Oct 20 2013 12:50:05
Библиотека кодирования : libebml v1.3.0 + libmatroska v1.4.1
Video
Идентификатор : 1
Формат : AVC
Формат/Информация : Advanced Video Codec
Профиль формата : High@L4.1
Параметр CABAC формата : Yes
Параметр ReFrames формата : 4 frames
Идентификатор кодека : V_MPEG4/ISO/AVC
Продолжительность : 1h 39mn
Битрейт : 11.7 Mbps
Ширина : 1 916 pixels
Высота : 1 036 pixels
Соотношение сторон : 1.85:1
Режим частоты кадров : Constant
Частота кадров : 23.976 fps
Цветовое пространство : YUV
Субдискретизация насыщенности : 4:2:0
Битовая глубина : 8 bits
Тип развёртки : Progressive
Бит/(Пиксели*Кадры) : 0.246
Размер потока : 8.18 GiB (82%)
Заголовок : Grand Budapest Hotel (2014) by Djex
Библиотека кодирования : x264 core 142 r2409+42 04be48a tMod [8-bit@all X86_64]
Настройки программы : cabac=1 / ref=4 / deblock=1:-3:-3 / analyse=0x3:0x113 / me=umh / subme=11 / psy=1 / fade_compensate=0.00 / psy_rd=1.07:0.00 / mixed_ref=1 / me_range=32 / chroma_me=1 / trellis=2 / 8x8dct=1 / cqm=0 / deadzone=21,11 / fast_pskip=0 / chroma_qp_offset=-2 / threads=6 / lookahead_threads=1 / sliced_threads=0 / nr=0 / decimate=0 / interlaced=0 / bluray_compat=0 / constrained_intra=0 / fgo=0 / bframes=8 / b_pyramid=2 / b_adapt=2 / b_bias=0 / direct=3 / weightb=1 / open_gop=0 / weightp=2 / keyint=250 / keyint_min=24 / scenecut=40 / intra_refresh=0 / rc_lookahead=50 / rc=crf / mbtree=0 / crf=17.1000 / qcomp=0.68 / qpmin=0:0:0 / qpmax=69:69:69 / qpstep=4 / vbv_maxrate=50000 / vbv_bufsize=62500 / crf_max=0.0 / nal_hrd=none / filler=0 / ip_ratio=1.40 / pb_ratio=1.15 / aq=4:0.73 / aq-sensitivity=10.00 / aq-factor=1.00:1.00:1.00 / aq2=0 / aq3=0
Язык : English
Default : Yes
Forced : No
Audio #1
Идентификатор : 2
Формат : DTS
Формат/Информация : Digital Theater Systems
Режим : 16
Параметр Endianness формата : Big
Идентификатор кодека : A_DTS
Продолжительность : 1h 39mn
Вид битрейта : Constant
Битрейт : 768 Kbps
Каналы : 6 channels
Расположение каналов : Front: L C R, Side: L R, LFE
Частота : 48.0 KHz
Битовая глубина : 24 bits
Метод сжатия : Lossy
Размер потока : 549 MiB (5%)
Заголовок : DTS 5.1 - 768 kbps |Дубляж, BD CEE|
Язык : Russian
Default : Yes
Forced : No
Audio #2
Идентификатор : 3
Формат : DTS
Формат/Информация : Digital Theater Systems
Режим : 16
Параметр Endianness формата : Big
Идентификатор кодека : A_DTS
Продолжительность : 1h 39mn
Вид битрейта : Constant
Битрейт : 1 509 Kbps
Каналы : 6 channels
Расположение каналов : Front: L C R, Side: L R, LFE
Частота : 48.0 KHz
Битовая глубина : 24 bits
Метод сжатия : Lossy
Размер потока : 1.05 GiB (11%)
Заголовок : DTS 5.1 - 1536 kbps |Оригинал|
Язык : English
Default : No
Forced : No
Text #1
Идентификатор : 4
Формат : UTF-8
Идентификатор кодека : S_TEXT/UTF8
Идентификатор кодека/Информация : UTF-8 Plain Text
Заголовок : Надписи и т.д
Язык : Russian
Default : Yes
Forced : No
Text #2
Идентификатор : 5
Формат : UTF-8
Идентификатор кодека : S_TEXT/UTF8
Идентификатор кодека/Информация : UTF-8 Plain Text
Заголовок : Полные (BD)
Язык : Russian
Default : No
Forced : No
Text #3
Идентификатор : 6
Формат : VobSub
Режим смешивания : zlib
Идентификатор кодека : S_VOBSUB
Идентификатор кодека/Информация : The same subtitle format used on DVDs
Заголовок : BD
Язык : Ukrainian
Default : No
Forced : No
Text #4
Идентификатор : 7
Формат : UTF-8
Идентификатор кодека : S_TEXT/UTF8
Идентификатор кодека/Информация : UTF-8 Plain Text
Язык : English
Default : No
Forced : No
Text #5
Идентификатор : 8
Формат : UTF-8
Идентификатор кодека : S_TEXT/UTF8
Идентификатор кодека/Информация : UTF-8 Plain Text
Заголовок : SDH
Язык : English
Default : No
Forced : No
Text #6
Идентификатор : 9
Формат : UTF-8
Идентификатор кодека : S_TEXT/UTF8
Идентификатор кодека/Информация : UTF-8 Plain Text
Заголовок : Надписи и т.д
Язык : English
Default : No
Forced : No
Text #7
Идентификатор : 10
Формат : UTF-8
Идентификатор кодека : S_TEXT/UTF8
Идентификатор кодека/Информация : UTF-8 Plain Text
Язык : Dutch
Default : No
Forced : No
Text #8
Идентификатор : 11
Формат : UTF-8
Идентификатор кодека : S_TEXT/UTF8
Идентификатор кодека/Информация : UTF-8 Plain Text
Язык : French
Default : No
Forced : No
Text #9
Идентификатор : 12
Формат : UTF-8
Идентификатор кодека : S_TEXT/UTF8
Идентификатор кодека/Информация : UTF-8 Plain Text
Язык : Greek
Default : No
Forced : No
Text #10
Идентификатор : 13
Формат : UTF-8
Идентификатор кодека : S_TEXT/UTF8
Идентификатор кодека/Информация : UTF-8 Plain Text
Язык : Portuguese
Default : No
Forced : No
Menu
00:00:00.000 : en: CHAPTER 01
00:02:55.884 : en: CHAPTER 02
00:06:00.151 : en: CHAPTER 03
00:08:28.133 : en: CHAPTER 04
00:11:32.609 : en: CHAPTER 05
00:14:17.190 : en: CHAPTER 06
00:17:39.600 : en: CHAPTER 07
00:19:56.237 : en: CHAPTER 08
00:23:08.804 : en: CHAPTER 09
00:25:35.409 : en: CHAPTER 10
00:29:30.310 : en: CHAPTER 11
00:32:11.763 : en: CHAPTER 12
00:34:16.262 : en: CHAPTER 13
00:35:51.649 : en: CHAPTER 14
00:38:58.044 : en: CHAPTER 15
00:40:18.833 : en: CHAPTER 16
00:41:43.793 : en: CHAPTER 17
00:45:22.761 : en: CHAPTER 18
00:48:22.649 : en: CHAPTER 19
00:51:53.026 : en: CHAPTER 20
00:55:18.273 : en: CHAPTER 21
00:59:08.545 : en: CHAPTER 22
01:04:17.020 : en: CHAPTER 23
01:08:34.986 : en: CHAPTER 24
01:12:20.461 : en: CHAPTER 25
01:16:18.907 : en: CHAPTER 26
01:17:41.490 : en: CHAPTER 27
01:20:47.801 : en: CHAPTER 28
01:24:02.370 : en: CHAPTER 29
01:27:08.556 : en: CHAPTER 30
01:30:55.908 : en: CHAPTER 31
01:32:57.363 : en: CHAPTER 32
Скриншоты Цитата:
  • За распознанные русские субтитры спасибо Skazhutin
Скачать

Скачать торрент!

Как скачивать? · Что такое торрент? · Рейтинг и ограничения

Сайт не распространяет и не хранит электронные версии произведений, а лишь предоставляет доступ к создаваемому пользователями каталогу ссылок на торрент-файлы, которые содержат только списки хеш-сумм

[Профиль] [ЛС]
Показать сообщения:    
Ответить на тему

Текущее время: Сегодня 07:04

Часовой пояс: GMT + 4



Вы не можете начинать темы
Вы не можете отвечать на сообщения
Вы не можете редактировать свои сообщения
Вы не можете удалять свои сообщения
Вы не можете голосовать в опросах
Вы не можете прикреплять файлы к сообщениям
Вы не можете скачивать файлы