Смокинг / The Tuxedo (Кевин Донован / Kevin Donovan) [2002, США, Комедия, боевик, WEB-DL 720p] Dub + Sub Eng + Original Eng

Ответить на тему
 
Автор Сообщение

user ®

Стаж: 7 лет 7 месяцев

Сообщений: 20008

Пост Пост: #1 от 10-Июн-2014 22:00

[Цитировать]

Смокинг / The Tuxedo
Страна: США
Жанр: Комедия, боевик
Год выпуска: 2002
Продолжительность: 01:38:45
Перевод: Профессиональный (дублированный)
Субтитры: английские
Навигация по главам: нет
Режиссер: Кевин Донован / Kevin Donovan
В ролях: Джеки Чан, Дженнифер Лав Хьюитт, Джейсон Айзекс, Деби Мейзар, Миа Коттет
Описание: Пока агент Кларк Девлин находится в коме, рядовому нью-йоркскому таксисту Джимми Тонгу приходится взять на себя секретную миссию по заказу правительства США. К Тонгу переходит компьютеризованный смокинг Девлина, который придает его носителю необычайные способности в плане драк, маскировки и обольщения.
И Джимми начинает захватывающую жизнь секретного агента в компании с такой же дилетанткой, как и он сам…
Сэмпл: https://yadi.sk/d/Uv4tIKOxSvqZk
Качество: WEB-DL 720p
Контейнер: MKV
Видео: AVC 1280x720, (1.78:1), 23,976 fps, 3814 Kbps
Аудио №1: Rus; AC3 5.1; 448 Kbps; 48 kHz; Dub
Аудио №2: Eng; AC3 5.1; 384 Kbps; 48 kHz; Original
Субтитры: Eng (SDH); (для слабослышащих), SRT
MediaInfo
D:\the tuxedo.mkv
General
Unique ID : 236023702150199469279002468894885493745 (0xB19082F54F235A258411E82842BF3BF1)
Complete name : D:\the tuxedo.mkv
Format : Matroska
Format version : Version 4 / Version 2
File size : 3.27 GiB
Duration : 1h 38mn
Overall bit rate : 4 740 Kbps
Encoded date : UTC 2014-06-10 12:17:48
Writing application : mkvmerge v6.9.1 ('Blue Panther') 64bit built on Apr 18 2014 18:23:38
Writing library : libebml v1.3.0 + libmatroska v1.4.1
Video #1
ID : 1
Format : AVC
Format/Info : Advanced Video Codec
Format profile : High@L3.1
Format settings, CABAC : No
Format settings, ReFrames : 2 frames
Codec ID : V_MPEG4/ISO/AVC
Duration : 1h 38mn
Bit rate : 3 814 Kbps
Width : 1 280 pixels
Height : 720 pixels
Display aspect ratio : 16:9
Frame rate mode : Constant
Frame rate : 23.976 fps
Color space : YUV
Chroma subsampling : 4:2:0
Bit depth : 8 bits
Scan type : Progressive
Bits/(Pixel*Frame) : 0.173
Stream size : 2.63 GiB (80%)
Default : Yes
Forced : No
Color primaries : BT.709
Transfer characteristics : BT.709
Matrix coefficients : BT.709
Audio #2
ID : 2
Format : AC-3
Format/Info : Audio Coding 3
Mode extension : CM (complete main)
Format settings, Endianness : Big
Codec ID : A_AC3
Duration : 1h 38mn
Bit rate mode : Constant
Bit rate : 448 Kbps
Channel count : 6 channels
Channel positions : Front: L C R, Side: L R, LFE
Sampling rate : 48.0 KHz
Bit depth : 16 bits
Compression mode : Lossy
Stream size : 316 MiB (9%)
Title : Rus Dub
Language : Russian
Default : No
Forced : No
Audio #3
ID : 3
Format : AC-3
Format/Info : Audio Coding 3
Mode extension : CM (complete main)
Format settings, Endianness : Big
Codec ID : A_AC3
Duration : 1h 38mn
Bit rate mode : Constant
Bit rate : 384 Kbps
Channel count : 6 channels
Channel positions : Front: L C R, Side: L R, LFE
Sampling rate : 48.0 KHz
Bit depth : 16 bits
Compression mode : Lossy
Stream size : 271 MiB (8%)
Title : Eng
Language : English
Default : No
Forced : No
Text #4
ID : 4
Format : UTF-8
Codec ID : S_TEXT/UTF8
Codec ID/Info : UTF-8 Plain Text
Title : Eng
Language : English
Default : No
Forced : No
Скриншоты
Скачать

Скачать торрент!

Как скачивать? · Что такое торрент? · Рейтинг и ограничения

Сайт не распространяет и не хранит электронные версии произведений, а лишь предоставляет доступ к создаваемому пользователями каталогу ссылок на торрент-файлы, которые содержат только списки хеш-сумм

[Профиль] [ЛС]
Показать сообщения:    
Ответить на тему

Текущее время: Сегодня 05:54

Часовой пояс: GMT + 4



Вы не можете начинать темы
Вы не можете отвечать на сообщения
Вы не можете редактировать свои сообщения
Вы не можете удалять свои сообщения
Вы не можете голосовать в опросах
Вы не можете прикреплять файлы к сообщениям
Вы не можете скачивать файлы