Новые парни нитро / New Kids Nitro (Стеффен Харс / Steffen Haars, Флип Ван Дер Куил / Flip Van der Kuil) [2011, Нидерланды, боевик, комедия, BDRemux 1080p] 2х VO + Sub Rus, Eng + Original Dut

Ответить на тему
 
Автор Сообщение

user ®

Стаж: 7 лет 7 месяцев

Сообщений: 20008

Пост Пост: #1 от 10-Июн-2014 16:55

[Цитировать]

Новые парни нитро / New Kids Nitro
Страна: Нидерланды
Студия: Bridge Entertainment Group, Comedy Central и др.
Жанр: боевик, комедия
Год выпуска: 2011
Продолжительность: 01:17:30
Перевод: Одноголосый закадровый Vova-mnemic
Перевод 2: Одноголосый закадровый Агент Смит
Cубтитры: русские, английские
Оригинальная аудиодорожка: нидерландский
Режиссер: Стеффен Харс / Steffen Haars, Флип Ван Дер Куил / Flip Van der Kuil
В ролях: Хуб Смит, Тим Харс, Весли ван Гален, Стеффен Харс, Флип Ван Дер Куил, Барт де Рийк, Руд Маттейссен, Гуидо Поллеманс, Яьяк-Питер ван Эс, Юльетта ван Ардене
Описание: Приключения пятерых друзей продолжаются. На этот раз они были вынуждены переехать жить в трейлерный парк. Все свободное время они пьют пиво и купаются в бассейне. Ричард очень переживает за свою больную мать, которая постоянно забывает принимать лекарства. Рикерт не может жить без своего автомобиля, но после того как влюбляется в красотку Дебору, совершенно забывает про него. Кроме личных проблем, друзья по прежнему ведут разборки с парнем по имени Дейв, который буквально слетел с катушек, после страшной истории с мусоровозом. Проблем как всегда много, но они совершенно не хотят их решать. И тут в самое сердце Нидерландов падает метеорит — именно это происшествие меняет жизнь пятерых друзей…
Доп. информация: Внимание! Присутствует ненормативная лексика.

Sample
Тип релиза: BDRemux 1080p
Контейнер: MKV
Видео: VC-1 Video , 16:9, 1920x1080, 23,976 fps, 20,7 Mbps
Аудио: Russian (AC3, 6 ch, 640 kbps, 16 bits, 48.0 KHz) - Vova-mnemic
Аудио 2: Russian (AC3, 2 ch, 224 kbps, 16 bits, 48.0 KHz) - Агент Смит
Аудио 3: Dutch (DTS-HD MA, 6 ch, 2148 kbps, 16 bits, 48.0 KHz / DTS core: 6 ch, 1509 kbps, 16 bits, 48.0 KHz) - оригинал
Формат субтитров: softsub (SRT)
MediaInfo
General
Unique ID : 252801672963285835275501976319096297330 (0xBE2FD4C93408F3C08918EECA62B09772)
Complete name : E:\1\Новые парни нитро.mkv
Format : Matroska
Format version : Version 4 / Version 2
File size : 12.8 GiB
Duration : 1h 17mn
Overall bit rate mode : Variable
Overall bit rate : 23.7 Mbps
Encoded date : UTC 2014-06-09 19:12:47
Writing application : mkvmerge v6.1.0 ('Old Devil') built on Mar 2 2013 14:32:37
Writing library : libebml v1.3.0 + libmatroska v1.4.0
Video
ID : 1
Format : VC-1
Format profile : Advanced@L3
Codec ID : V_MS/VFW/FOURCC / WVC1
Codec ID/Hint : Microsoft
Duration : 1h 17mn
Width : 1 920 pixels
Height : 1 080 pixels
Display aspect ratio : 16:9
Frame rate mode : Constant
Frame rate : 23.976 fps
Color space : YUV
Chroma subsampling : 4:2:0
Bit depth : 8 bits
Scan type : Progressive
Compression mode : Lossy
Language : Dutch
Default : Yes
Forced : No
Audio #1
ID : 2
Format : AC-3
Format/Info : Audio Coding 3
Mode extension : CM (complete main)
Format settings, Endianness : Big
Codec ID : A_AC3
Duration : 1h 17mn
Bit rate mode : Constant
Bit rate : 640 Kbps
Channel count : 6 channels
Channel positions : Front: L C R, Side: L R, LFE
Sampling rate : 48.0 KHz
Bit depth : 16 bits
Compression mode : Lossy
Stream size : 355 MiB (3%)
Title : Vova-mnemic
Language : Russian
Default : Yes
Forced : No
Audio #2
ID : 3
Format : AC-3
Format/Info : Audio Coding 3
Mode extension : CM (complete main)
Format settings, Endianness : Big
Codec ID : A_AC3
Duration : 1h 17mn
Bit rate mode : Constant
Bit rate : 224 Kbps
Channel count : 2 channels
Channel positions : Front: L R
Sampling rate : 48.0 KHz
Bit depth : 16 bits
Compression mode : Lossy
Stream size : 124 MiB (1%)
Title : Агент Смит
Language : Russian
Default : No
Forced : No
Audio #3
ID : 4
Format : DTS
Format/Info : Digital Theater Systems
Format profile : MA / Core
Mode : 16
Format settings, Endianness : Big
Codec ID : A_DTS
Duration : 1h 17mn
Bit rate mode : Variable
Bit rate : Unknown / 1 509 Kbps
Channel count : 6 channels
Channel positions : Front: L C R, Side: L R, LFE
Sampling rate : 48.0 KHz
Bit depth : 16 bits
Compression mode : Lossless / Lossy
Language : Dutch
Default : No
Forced : No
Text #1
ID : 5
Format : UTF-8
Codec ID : S_TEXT/UTF8
Codec ID/Info : UTF-8 Plain Text
Language : Russian
Default : No
Forced : No
Text #2
ID : 6
Format : UTF-8
Codec ID : S_TEXT/UTF8
Codec ID/Info : UTF-8 Plain Text
Language : English
Default : No
Forced : No
Menu
00:00:00.000 : en:00:00:00.000
00:03:11.274 : en:00:03:11.274
00:07:07.135 : en:00:07:07.135
00:11:13.423 : en:00:11:13.423
00:13:41.487 : en:00:13:41.487
00:17:03.689 : en:00:17:03.689
00:20:51.125 : en:00:20:51.125
00:23:06.093 : en:00:23:06.093
00:27:52.337 : en:00:27:52.337
00:32:41.251 : en:00:32:41.251
00:36:19.636 : en:00:36:19.636
00:39:32.829 : en:00:39:32.829
00:43:11.088 : en:00:43:11.088
00:48:13.474 : en:00:48:13.474
00:51:57.740 : en:00:51:57.740
00:55:54.935 : en:00:55:54.935
01:00:08.522 : en:01:00:08.522
01:01:49.456 : en:01:01:49.456
01:03:47.782 : en:01:03:47.782
01:08:37.739 : en:01:08:37.739
01:12:01.984 : en:01:12:01.984
Скриншоты Торрент перезалит. Добавлена озвучка Агента Смита. Приношу свои извинения за причинённые неудобства.
Скачать

Скачать торрент!

Как скачивать? · Что такое торрент? · Рейтинг и ограничения

Сайт не распространяет и не хранит электронные версии произведений, а лишь предоставляет доступ к создаваемому пользователями каталогу ссылок на торрент-файлы, которые содержат только списки хеш-сумм

[Профиль] [ЛС]
Показать сообщения:    
Ответить на тему

Текущее время: Сегодня 05:10

Часовой пояс: GMT + 4



Вы не можете начинать темы
Вы не можете отвечать на сообщения
Вы не можете редактировать свои сообщения
Вы не можете удалять свои сообщения
Вы не можете голосовать в опросах
Вы не можете прикреплять файлы к сообщениям
Вы не можете скачивать файлы