22 минуты (Василий Сериков) [2014, Боевик, WEB-DLRip]

Ответить на тему
 
Автор Сообщение

user ®

Стаж: 7 лет 7 месяцев

Сообщений: 20008

Пост Пост: #1 от 10-Июн-2014 13:45

[Цитировать]

22 минуты- -Жанр: Боевик
Год выпуска: 2014
Продолжительность: 01:19:31
Режиссёр: Василий Сериков
В ролях: Макар Запорожский, Денис Никифоров, Виктор Сухоруков, Екатерина Маликова, Гаэль Камилинди, Александр Галибин, Владислав Демин, Ибрагим Тооре, Софья Козко, Иван Породнов...
Описание: Морпех — первогодок Саня Ежов оказывается среди пиратов на захваченном танкере. Он знает — товарищи не бросят. Ему нужно выжить и помочь своим, когда начнется штурм. Фильм основан на реальных событиях 5 мая 2010 года, когда морские пехотинцы БПК «Маршал Шапошников» освободили захваченный в водах Аденского залива российский танкер «Московский университет». У них было только 22 минуты без права на ошибку…
Сэмпл: http://multi-up.com/979456
Качество видео:WED-DLRip
Формат видео: AVI
Видео: MPEG-4 Visual at 1181 Кбит/сек; 688 x 384 (1.792) at 25.000 fps
Аудио: MPEG Audio at 128 Кбит/сек; 2 канала, 48,0 КГц
Релиз от -
MediaInfo
Общее
Полное имя : D:\Фильмы\Русские\22 минуты\22 минуты.2013.WEB-DLRip.XviD.745MB. rip by [Assassin's Creed].avi
Формат : AVI
Формат/Информация : Audio Video Interleave
Размер файла : 750 Мбайт
Продолжительность : 1 ч. 19 м.
Общий поток : 1318 Кбит/сек
Программа кодирования : VirtualDubMod 1.5.10.3 | www.virtualdub-fr.org || (build 2550/release)
Библиотека кодирования : VirtualDubMod build 2550/release
Видео
Идентификатор : 0
Формат : MPEG-4 Visual
Профиль формата : Advanced Simple@L5
Параметр BVOP формата : 1
Параметр QPel формата : Нет
Параметр GMC формата : Без точки перехода
Параметр матрицы формата : Default (MPEG)
Идентификатор кодека : XVID
Идентификатор кодека/Подсказка : XviD
Продолжительность : 1 ч. 19 м.
Битрейт : 1181 Кбит/сек
Ширина : 688 пикселей
Высота : 384 пикселя
Соотношение сторон : 16:9
Частота кадров : 25,000 кадров/сек
Цветовое пространство : YUV
Субдискретизация насыщенности : 4:2:0
Битовая глубина : 8 бит
Тип развёртки : Прогрессивная
Метод сжатия : С потерями
Бит/(Пиксели*Кадры) : 0.179
Размер потока : 671 Мбайт (90%)
Библиотека кодирования : XviD 1.2.1 (UTC 2008-12-04)
Аудио
Идентификатор : 1
Формат : MPEG Audio
Версия формата : Version 1
Профиль формата : Layer 3
Идентификатор кодека : 55
Идентификатор кодека/Подсказка : MP3
Продолжительность : 1 ч. 19 м.
Вид битрейта : Постоянный
Битрейт : 128 Кбит/сек
Каналы : 2 канала
Частота : 48,0 КГц
Метод сжатия : С потерями
Размер потока : 72,8 Мбайт (10%)
Выравнивание : Соединение по промежуткам
Продолжительность промежутка : 40 мс. (1,00 видеокадр)
Время предзагрузки промежутка : 504 мс.
Библиотека кодирования : LAME3.99r
Настройки программы : -m s -V 4 -q 2 -lowpass 17 -b 128
Скриншот c названием фильма Скриншоты
Скачать

Скачать торрент!

Как скачивать? · Что такое торрент? · Рейтинг и ограничения

Сайт не распространяет и не хранит электронные версии произведений, а лишь предоставляет доступ к создаваемому пользователями каталогу ссылок на торрент-файлы, которые содержат только списки хеш-сумм

[Профиль] [ЛС]
Показать сообщения:    
Ответить на тему

Текущее время: Сегодня 20:11

Часовой пояс: GMT + 4



Вы не можете начинать темы
Вы не можете отвечать на сообщения
Вы не можете редактировать свои сообщения
Вы не можете удалять свои сообщения
Вы не можете голосовать в опросах
Вы не можете прикреплять файлы к сообщениям
Вы не можете скачивать файлы